林峯(林峰) - A Time 4 You 2013 演唱会 720P《BDrip MKV 10.4G》

[视频信息]
视频编码: AVC1 - Native D3D9 DXVA Decoder(VLD) - Intel(R) UHD Graphics 770
输入格式: AVC1(24 bits)
输入尺寸: 1280 × 720(1.78:1)
输出格式: dxva
输出尺寸: 1280 × 720(1.78:1)
帧率: 23.976
BitRate: 未知

[音频信息]
音频编码: DTS(0x2001) - FFmpegMininum64.dll(dca)
采样率: 48000 -> 48000 Hz
位率: 0 -> 16 位
声道数: 6 -> 2 声道
Bitrate: 768 kbps

简介  · · · · · ·

過去分別以水、火、光作為演唱會元素,為樂迷帶來一次又一次的震撼舞台。
今次演唱會林峰再度突破自我,以『時間』作為主題,在舞台上挑戰極限!
『A Time 4 You』除了突顯『時間』外,亦代表林峰施展渾身解數,相約樂迷共享第四次個唱!

曲目  · · · · · ·

PART 1
01. 如果時間來到
02. Nice
03. LFX 6.8
04. 愛在記憶中找你
05. The One
06. 頑石
07. 熱能放送(林峰、Lollipop F)
08. Dance Solo
09. Hello
10. Vampire
11. 寂寞星球
12. 定鏡
13. Because Of You
14. 記得忘記(林峰、林欣彤)
15. 海賊(林欣彤)
PART 2
01. Baby Lady
02. BB
03. Morning Cute
04. Drenched
05. I 'm Okay
06. Light Up My Life
07. 初見(林峰、謝安琪)
08. 一刀切
09. Once Again
10. 讓我愛你一小時(國語)
11. 換個方式愛你
12. Party Medley :Chok/Come 2 Me/Let's Get Wet/How Deep/Tonight/再一次
(One More Time)(國語)/Nice
PART 3
01. Talks & Thanks
02. 愛不疚
03. 同林
04. 如果時間來到
05. 所謂理想
06. 幼稚完
Bonus Track :
01. 直到你不找我/愛人與海
02. 心呼吸
03. 幼稚完(林峰、鄧智偉)

General
Unique ID : 237893395523211641327569182008913813116 (0xB2F899F56AA9E5A6883C705F2835DE7C)
Complete name : Y:\林峰 - 2013 A.TIME.4.YOU.mkv
Format : Matroska
Format version : Version 4
File size : 10.4 GiB
Duration : 2 h 59 min
Overall bit rate mode : Variable
Overall bit rate : 8 331 kb/s
Encoded date : UTC 2013-10-14 06:02:57
Writing application : mkvmerge v6.4.1 ('Omega Point') built on Sep 16 2013 22:05:10
Writing library : libebml v1.3.0 + libmatroska v1.4.1

Video
ID : 1
Format : AVC
Format/Info : Advanced Video Codec
Format profile : High@L4.1
Format settings : CABAC / 9 Ref Frames
Format settings, CABAC : Yes
Format settings, Reference fra : 9 frames
Codec ID : V_MPEG4/ISO/AVC
Duration : 2 h 59 min
Nominal bit rate : 6 500 kb/s
Width : 1 280 pixels
Height : 720 pixels
Display aspect ratio : 16:9
Frame rate mode : Constant
Frame rate : 23.976 (24000/1001) FPS
Color space : YUV
Chroma subsampling : 4:2:0
Bit depth : 8 bits
Scan type : Progressive
Bits/(Pixel*Frame) : 0.294
Title : MPEG-4 x264@High Profile L4.1, 24/1.001 fps @ 6500 kbps
Writing library : x264 core 138 r2358 9e941d1
Encoding settings : cabac=1 / ref=9 / deblock=1:-3:-3 / analyse=0x3:0x133 / me=umh / subme=11 / psy=1 / psy_rd=1.00:0.00 / mixed_ref=1 / me_range=32 / chroma_me=1 / trellis=2 / 8x8dct=1 / cqm=0 / deadzone=21,11 / fast_pskip=0 / chroma_qp_offset=-2 / threads=24 / lookahead_threads=2 / sliced_threads=0 / nr=0 / decimate=0 / interlaced=0 / bluray_compat=0 / constrained_intra=0 / bframes=6 / b_pyramid=2 / b_adapt=2 / b_bias=0 / direct=3 / weightb=1 / open_gop=0 / weightp=2 / keyint=240 / keyint_min=23 / scenecut=40 / intra_refresh=0 / rc_lookahead=60 / rc=2pass / mbtree=1 / bitrate=6500 / ratetol=1.0 / qcomp=0.60 / qpmin=0 / qpmax=69 / qpstep=4 / cplxblur=20.0 / qblur=0.5 / vbv_maxrate=22000 / vbv_bufsize=22000 / nal_hrd=none / ip_ratio=1.40 / aq=1:0.60
Language : English
Default : Yes
Forced : No

Audio #1
ID : 2
Format : DTS
Format/Info : Digital Theater Systems
Codec ID : A_DTS
Duration : 2 h 59 min
Bit rate mode : Constant
Bit rate : 768 kb/s
Channel(s) : 6 channels
Channel layout : C L R Ls Rs LFE
Sampling rate : 48.0 kHz
Frame rate : 93.750 FPS (512 SPF)
Bit depth : 24 bits
Compression mode : Lossy
Stream size : 986 MiB (9%)
Title : Chinese DTS-HD Core 5.1 @ 1509 kbps
Language : Chinese
Default : Yes
Forced : No

Audio #2
ID : 3
Format : FLAC
Format/Info : Free Lossless Audio Codec
Codec ID : A_FLAC
Duration : 2 h 59 min
Bit rate mode : Variable
Channel(s) : 2 channels
Channel layout : L R
Sampling rate : 48.0 kHz
Bit depth : 16 bits
Compression mode : Lossless
Title : Chinese Flac 2.0 @ 858 kbps
Writing library : libFLAC 1.2.1 (UTC 2007-09-17)
Language : Chinese
Default : No
Forced : No

Audio #3
ID : 4
Format : AC-3
Format/Info : Audio Coding 3
Commercial name : Dolby Digital
Codec ID : A_AC3
Duration : 2 h 59 min
Bit rate mode : Constant
Bit rate : 192 kb/s
Channel(s) : 2 channels
Channel layout : L R
Sampling rate : 48.0 kHz
Frame rate : 31.250 FPS (1536 SPF)
Compression mode : Lossy
Stream size : 246 MiB (2%)
Title : Chinese Dolby Digital Audio 2.0 @ 192 kbps Karaoke
Language : Chinese
Service kind : Complete Main
Default : No
Forced : No

Text
ID : 5
Format : PGS
Codec ID : S_HDMV/PGS
Codec ID/Info : Picture based subtitle format used on BDs/HD-DVDs
Title : Cht/SUP 原盘繁体
Language : Chinese
Default : Yes
Forced : No

Menu
00:00:00.000 : en:01. 如果时间来到
00:02:02.122 : en:02. Nice
00:05:23.073 : en:03. LFX 6.8
00:09:32.071 : en:04. 爱在记忆中找你
00:13:27.890 : en:05. The One
00:17:58.077 : en:06. 顽石
00:20:57.256 : en:07. 热能放送(林峰、Lollipop F)
00:23:28.991 : en:08. Dance Solo
00:26:12.070 : en:09. Hello
00:28:47.726 : en:10. Vampire
00:35:04.811 : en:11. 寂寞星球
00:40:38.269 : en:12. 定镜
00:46:34.750 : en:13. Because Of You
00:49:58.996 : en:14. 记得忘记(林峰、林欣彤)
00:56:03.860 : en:15. 海贼(林欣彤)
00:59:46.750 : en:16. Baby Lady
01:04:05.633 : en:17. BB
01:08:41.742 : en:18. Morning Cute
01:12:58.833 : en:19. Drenched
01:17:32.648 : en:20. I ‘m Okay
01:21:51.365 : en:21. Light up my life
01:25:39.467 : en:22. 初见(林峰、谢安琪)
01:31:10.882 : en:23. 一刀切
01:33:55.546 : en:24. Once Again
01:38:27.610 : en:25. 让我爱你一小时(国语)
01:43:30.037 : en:26. 换个方式爱你
01:50:42.093 : en:27. Party Medley : Chok/Come 2 Me/ Let‘s Get Wet/How Deep/ Tonight/再一次 (One More Time)(国)/Nice
02:03:18.975 : en:28. Talks & Thanks
02:10:34.159 : en:29. 爱不疚
02:15:28.078 : en:30. 同林
02:20:53.403 : en:31. 如果时间来到
02:29:24.455 : en:32. 所谓理想
02:34:27.007 : en:33. 幼稚完
02:42:53.305 : en:34. 直到你不找我/爱人与海
02:50:01.733 : en:35. 心呼吸
02:53:35.488 : en:36. 幼稚完(林峰、邓智伟)

 

资源下载
下载价格5 金币
VIP免费
所有资源都在百度网盘,如有链接失效、解压错误等、请联系管理微信:lgychcom
原文链接:https://www.lgych.com/47151.html,转载请注明出处。
0

评论213

请先
  1. 谢谢楼主无私奉献ofw
    2023-01-16 0
  2. 谢谢楼主无私奉献3xk
    2023-01-16 0
  3. 很棒的资源。谢谢i92
    2023-01-16 0
  4. 好资源感谢分享4du
    2023-01-16 0
  5. 感谢分享6kt
    2023-01-17 0
  6. 谢谢分享
    htryftryu6 2023-01-20 0
  7. 谢谢分享1
    htryftryu6 2023-01-28 0
  8. 多谢分享,感谢楼主
    Karsamaz 2023-08-22 0
  9. 感谢楼主
    xtj7224 2023-09-11 0
  10. 谢谢分享
    o249305365 2023-12-27 0
  11. 支持发展越来越好oai
    1周前 0
  12. 不错z17
    1周前 0
  13. 好资源xj7
    1周前 0
1 9 10 11
小甜甜布兰妮 Britney Spears
小甜甜布兰妮 Britney Spears "The Videos" [DVD ISO 2.99G]
刚刚 有人购买 去瞅瞅看
本站资源均可通过签到或者评论免费获取,被一些朋友批量注册账号玩坏了;关闭自由注册,后面需要注册账号的朋友,请自助购买邀请码注册
显示验证码
没有账号?注册  忘记密码?