Red Hot Chili Peppers -''I'm With You'' 2011《HDTV TS 12.3G》

[视频信息]
视频编码: MPG2 - 内置 FFmpeg 解码器(mpeg2video)
输入格式: MPG2(12 bits)
输入尺寸: 1920 × 1080(1.78:1)
输出格式: YV12(12 bits)
输出尺寸: 1920 × 1080(1.78:1)
帧率: 25
BitRate: 18101.2 kbps

[音频信息]
音频编码: AC3(0x2000) - 内置 FFmpeg 解码器(ac3)
采样率: 48000 -> 48000 Hz
位率: 0 -> 16 位
声道数: 6 -> 2 声道
Bitrate: 448 kbps

General
ID : 1 (0x1)
Complete name : Y:\Red Hot Chili Peppers -''I'm With You''.2011.HDTV.1080i.ts\Red Hot Chili Peppers -''I'm With You''.2011.HDTV.1080i.ts
Format : MPEG-TS
File size : 12.3 GiB
Duration : 1 h 32 min
Overall bit rate mode : Variable
Overall bit rate : 19.0 Mb/s

Video
ID : 308 (0x134)
Menu ID : 1 (0x1)
Format : MPEG Video
Format version : Version 2
Format profile : Main@High
Format settings : CustomMatrix / BVOP
Format settings, BVOP : Yes
Format settings, Matrix : Custom
Format settings, GOP : M=3, N=12
Format settings, picture struc : Frame
Codec ID : 2
Duration : 1 h 32 min
Bit rate mode : Variable
Bit rate : 17.6 Mb/s
Maximum bit rate : 18.1 Mb/s
Width : 1 920 pixels
Height : 1 080 pixels
Display aspect ratio : 16:9
Frame rate : 25.000 FPS
Color space : YUV
Chroma subsampling : 4:2:0
Bit depth : 8 bits
Scan type : Interlaced
Scan order : Top Field First
Compression mode : Lossy
Bits/(Pixel*Frame) : 0.340
Time code of first frame : 00:00:00:00
Time code source : Group of pictures header
GOP, Open/Closed : Open
GOP, Open/Closed of first fram : Closed
Stream size : 11.4 GiB (93%)

Audio
ID : 256 (0x100)
Menu ID : 1 (0x1)
Format : AC-3
Format/Info : Audio Coding 3
Commercial name : Dolby Digital
Codec ID : 129
Duration : 1 h 32 min
Bit rate mode : Constant
Bit rate : 448 kb/s
Channel(s) : 6 channels
Channel layout : L R C LFE Ls Rs
Sampling rate : 48.0 kHz
Frame rate : 31.250 FPS (1536 SPF)
Compression mode : Lossy
Stream size : 298 MiB (2%)
Language : one
Service kind : Complete Main

 

资源下载
下载价格10 金币
VIP免费
所有资源都在百度网盘,如有链接失效、解压错误等、请联系管理微信:lgychcom
原文链接:https://www.lgych.com/47624.html,转载请注明出处。
0

评论163

请先
  1. 谢谢分享6ot
    1周前 0
  2. 感谢分享txl
    1周前 0
  3. 谢谢分享感谢分享感谢
    languang11 1周前 0
1 7 8 9
蔡琴2010海上良宵香港演唱会 Tsai Chin Hong Kong Concert Live 2010 Karaoke《BDMV 39.11G》
蔡琴2010海上良宵香港演唱会 Tsai Chin Hong Kong Concert Live 2010 Karaoke《BDMV 39.11G》
9分钟前 有人购买 去瞅瞅看
本站资源均可通过签到或者评论免费获取,被一些朋友批量注册账号玩坏了;关闭自由注册,后面需要注册账号的朋友,请自助购买邀请码注册
显示验证码
没有账号?注册  忘记密码?