VA-The Best British Rock Concert Of All Time Live At Knebworth 1990 [2015]《BDrip MKV 17.1G》

[视频信息]
视频编码: AVC1 - Native D3D9 DXVA Decoder(VLD) - Intel(R) UHD Graphics 770
输入格式: AVC1(24 bits)
输入尺寸: 1400 × 1080(1.3:1)
输出格式: dxva
输出尺寸: 1400 × 1080(1.3:1)
帧率: 29.97
BitRate: 未知

[音频信息]
音频编码: DTS(0x2001) - FFmpegMininum64.dll(dca)
采样率: 48000 -> 48000 Hz
位率: 0 -> 16 位
声道数: 6 -> 2 声道
Bitrate: 1509 kbps

General
Unique ID : 218898683655273847006395399135576523305 (0xA4AE5A5BD6FCD90C9BA52937C5410229)
Complete name : Y:\VA-The Best British Rock Concert Of All Time Live At Knebworth (2015)-alE13\VA - Live At Knebworth (1990)-alE13.mkv
Format : Matroska
Format version : Version 4
File size : 17.1 GiB
Duration : 3 h 6 min
Overall bit rate mode : Variable
Overall bit rate : 13.1 Mb/s
Movie name : VA-The Best British Rock Concert Of All Time Live At Knebworth (2015)-alE13
Encoded date : UTC 2021-02-23 10:31:57
Writing application : mkvmerge v8.1.0 ('Psychedelic Postcard') 64bit
Writing library : libebml v1.3.1 + libmatroska v1.4.2
Cover : Yes
Attachments : Cover.jpg

Video
ID : 1
Format : AVC
Format/Info : Advanced Video Codec
Format profile : High@L4.1
Format settings : CABAC / 5 Ref Frames
Format settings, CABAC : Yes
Format settings, Reference fra : 5 frames
Codec ID : V_MPEG4/ISO/AVC
Duration : 3 h 6 min
Bit rate : 10.6 Mb/s
Width : 1 400 pixels
Height : 1 080 pixels
Display aspect ratio : 1.296
Frame rate mode : Constant
Frame rate : 29.970 (30000/1001) FPS
Color space : YUV
Chroma subsampling : 4:2:0
Bit depth : 8 bits
Scan type : Progressive
Bits/(Pixel*Frame) : 0.234
Stream size : 13.8 GiB (81%)
Title : VA-The Best British Rock Concert Of All Time Live At Knebworth (2015)-alE13
Writing library : x264 core 157 r2969 d4099dd
Encoding settings : cabac=1 / ref=5 / deblock=1:-3:-3 / analyse=0x3:0x133 / me=tesa / subme=11 / psy=1 / psy_rd=1.15:0.10 / mixed_ref=1 / me_range=40 / chroma_me=1 / trellis=2 / 8x8dct=1 / cqm=0 / deadzone=21,11 / fast_pskip=1 / chroma_qp_offset=-3 / threads=12 / lookahead_threads=2 / sliced_threads=0 / nr=0 / decimate=1 / interlaced=0 / bluray_compat=0 / constrained_intra=0 / bframes=8 / b_pyramid=2 / b_adapt=2 / b_bias=0 / direct=3 / weightb=1 / open_gop=0 / weightp=2 / keyint=300 / keyint_min=29 / scenecut=50 / intra_refresh=0 / rc_lookahead=80 / rc=2pass / mbtree=1 / bitrate=10600 / ratetol=1.0 / qcomp=0.60 / qpmin=0 / qpmax=69 / qpstep=4 / cplxblur=20.0 / qblur=0.5 / vbv_maxrate=50000 / vbv_bufsize=62500 / nal_hrd=none / filler=0 / ip_ratio=1.40 / aq=1:1.00
Default : Yes
Forced : No

Audio #1
ID : 2
Format : DTS
Format/Info : Digital Theater Systems
Codec ID : A_DTS
Duration : 3 h 6 min
Bit rate mode : Constant
Bit rate : 1 509 kb/s
Channel(s) : 6 channels
Channel layout : C L R Ls Rs LFE
Sampling rate : 48.0 kHz
Frame rate : 93.750 FPS (512 SPF)
Bit depth : 24 bits
Compression mode : Lossy
Stream size : 1.97 GiB (12%)
Title : VA-The Best British Rock Concert Of All Time Live At Knebworth (2015)-alE13_DTS 5.1 @ 24 bit
Language : English
Default : Yes
Forced : No

Audio #2
ID : 3
Format : FLAC
Format/Info : Free Lossless Audio Codec
Codec ID : A_FLAC
Duration : 3 h 6 min
Bit rate mode : Variable
Bit rate : 993 kb/s
Channel(s) : 2 channels
Channel layout : L R
Sampling rate : 48.0 kHz
Frame rate : 11.719 FPS (4096 SPF)
Bit depth : 24 bits
Compression mode : Lossless
Stream size : 1.30 GiB (8%)
Title : VA-The Best British Rock Concert Of All Time Live At Knebworth (2015)-alE13_FLAC_2.0
Writing library : libFLAC 1.2.1 (UTC 2007-09-17)
Language : English
Default : No
Forced : No

Menu
00:00:00.000 : en: 01. Opening
00:00:54.054 : en: 02. Tears for Fears - Change
00:06:40.000 : en: 03. Tears for Fears - Badman's Song
00:17:51.904 : en: 04. Tears for Fears - Everybody Wants to Rule the World
00:22:08.594 : en: 05. Cliff Richard & The Shadows - On the Beach
00:24:45.184 : en: 06. Cliff Richard & The Shadows - Good Golly Miss Molly
00:27:40.259 : en: 07. Cliff Richard & The Shadows - We Don't Talk Anymore
00:32:23.708 : en: 08. Phil Collins & The Serious Band - In the Air Tonight
00:39:09.881 : en: 09. Phil Collins & The Serious Band - Sussudio
00:46:22.146 : en: 10. Paul McCartney - Coming Up
00:51:50.908 : en: 11. Paul McCartney - Birthday
00:54:30.000 : en: 12. Paul McCartney - Hey Jude
01:02:23.039 : en: 13. Paul McCartney - Can't Buy Me Love
01:05:19.482 : en: 14. Status Quo - Whatever You Want
01:09:45.581 : en: 15. Status Quo - Rockin' All Over the World
01:13:45.755 : en: 16. Status Quo - Dirty Water
01:17:54.203 : en: 17. Status Quo - In the Army Now
01:22:07.623 : en: 18. Eric Clapton - Before You Accuse Me
01:27:37.052 : en: 19. Eric Clapton - Tearin' Us Apart
01:34:54.756 : en: 20. Dire Straits - Solid Rock
01:40:19.914 : en: 21. Dire Straits - Think I Love You Too Much
01:46:17.972 : en: 22. Dire Straits - Money For Nothing
01:53:25.632 : en: 23. Elton John - Sacrifice
01:58:23.296 : en: 24. Elton John - Sad Songs (Say So Much)
02:03:57.363 : en: 25. Robert Plant - Hurting Kind
02:08:35.575 : en: 26. Robert Plant - Tall Cool One
02:13:55.561 : en: 27. Robert Plant - Wearing & Tearing (with Jimmy Page)
02:19:33.065 : en: 28. Robert Plant - Rock and Roll (with Jimmy Page)
02:23:47.452 : en: 29. Genesis - Mama
02:30:58.816 : en: 30. Genesis - Throwing It All Away
02:37:17.628 : en: 31. Genesis - Turn It On Again Medley: Turn It On Again/ Everybody Needs Somebody to Love/ Reach Out, I'll Be There/ Pinball Wizard/ In the Midnight Hour/ Turn It On Again (Reprise)
02:47:45.255 : en: 32. Pink Floyd - Shine On You Crazy Diamond
02:58:22.458 : en: 33. Pink Floyd - Run Like Hell
03:06:01.424 : en: Credits

 

资源下载
下载价格10 金币
VIP免费
所有资源都在百度网盘,如有链接失效、解压错误等、请联系管理微信:lgychcom
原文链接:https://www.lgych.com/49417.html,转载请注明出处。
1

评论144

请先
  1. 很棒的资源yoq
    2周前 0
  2. 非常感谢gmn
    2周前 0
  3. 不错9j8
    2周前 0
  4. 好资源y9x
    2周前 0
1 6 7 8
郭富城 - 舞林密码世界巡迴演唱会 香港站 2016 Aaron Kwok de Aa Kode - World Tour Live In Hong Kong 2016 [自购原盘] [BDMV 2BD 51.1GB]
郭富城 - 舞林密码世界巡迴演唱会 香港站 2016 Aaron Kwok de Aa Kode - World Tour Live In Hong Kong 2016 [自购原盘] [BDMV 2BD 51.1GB]
1分钟前 有人购买 去瞅瞅看
显示验证码
没有账号?注册  忘记密码?