Weber - Der Freischutz Thielemann, Dresden 2015《BDrip MKV 10.3G》

[视频信息]
视频编码: AVC1 - Native D3D9 DXVA Decoder(VLD) - Intel(R) UHD Graphics 770
输入格式: AVC1(24 bits)
输入尺寸: 1920 × 1080(1.78:1)
输出格式: dxva
输出尺寸: 1920 × 1080(1.78:1)
帧率: 29.97
BitRate: 未知

[音频信息]
音频编码: DTS(0x2001) - FFmpegMininum64.dll(dca)
采样率: 48000 -> 48000 Hz
位率: 0 -> 16 位
声道数: 5 -> 2 声道
Bitrate: 1509 kbps

General
Unique ID : 248354211480826079894450334366096944352 (0xBAD7480158F1E528B56E4C7DCDF3ECE0)
Complete name : Y:\115\ZZZ\ZZZ 第6页\WEB-2015-10.3\Weber - Der Freischutz (Thielemann, Dresden 2015) 1080 multi sub\Der Freischutz (2015,Dresden)_Thielemann.mkv
Format : Matroska
Format version : Version 4
File size : 10.4 GiB
Duration : 2 h 29 min
Overall bit rate : 9 965 kb/s
Encoded date : UTC 2018-05-08T15:26:58Z
Writing application : HandBrake 1.1.0 2018040700
Writing library : Lavf57.7.2

Video
ID : 1
Format : AVC
Format/Info : Advanced Video Codec
Format profile : Main@L4
Format settings : CABAC / 4 Ref Frames
Format settings, CABAC : Yes
Format settings, Reference fra : 4 frames
Codec ID : V_MPEG4/ISO/AVC
Duration : 2 h 29 min
Bit rate : 8 000 kb/s
Width : 1 920 pixels
Height : 1 080 pixels
Display aspect ratio : 16:9
Frame rate mode : Constant
Frame rate : 29.970 (30000/1001) FPS
Color space : YUV
Chroma subsampling : 4:2:0
Bit depth : 8 bits
Scan type : Progressive
Bits/(Pixel*Frame) : 0.129
Stream size : 8.15 GiB (78%)
Writing library : x264 core 155 r2893 b00bcaf
Encoding settings : cabac=1 / ref=2 / deblock=1:0:0 / analyse=0x1:0x111 / me=hex / subme=6 / psy=1 / psy_rd=1.00:0.00 / mixed_ref=1 / me_range=16 / chroma_me=1 / trellis=1 / 8x8dct=0 / cqm=0 / deadzone=21,11 / fast_pskip=1 / chroma_qp_offset=-2 / threads=24 / lookahead_threads=4 / sliced_threads=0 / nr=0 / decimate=1 / interlaced=0 / bluray_compat=0 / constrained_intra=0 / bframes=3 / b_pyramid=2 / b_adapt=1 / b_bias=0 / direct=1 / weightb=1 / open_gop=0 / weightp=1 / keyint=300 / keyint_min=30 / scenecut=40 / intra_refresh=0 / rc_lookahead=30 / rc=abr / mbtree=1 / bitrate=8000 / ratetol=1.0 / qcomp=0.60 / qpmin=0 / qpmax=69 / qpstep=4 / ip_ratio=1.40 / aq=1:1.00
Default : Yes
Forced : No
Color range : Limited
Color primaries : BT.709
Transfer characteristics : BT.709
Matrix coefficients : BT.709

Audio #1
ID : 2
Format : DTS
Format/Info : Digital Theater Systems
Codec ID : A_DTS
Duration : 2 h 29 min
Bit rate mode : Constant
Bit rate : 1 509 kb/s
Channel(s) : 5 channels
Channel layout : C L R Ls Rs
Sampling rate : 48.0 kHz
Frame rate : 93.750 FPS (512 SPF)
Bit depth : 24 bits
Compression mode : Lossy
Stream size : 1.57 GiB (15%)
Title : Surround
Language : German
Default : Yes
Forced : No

Audio #2
ID : 3
Format : AC-3
Format/Info : Audio Coding 3
Commercial name : Dolby Digital
Codec ID : A_AC3
Duration : 2 h 29 min
Bit rate mode : Constant
Bit rate : 448 kb/s
Channel(s) : 2 channels
Channel layout : L R
Sampling rate : 48.0 kHz
Frame rate : 31.250 FPS (1536 SPF)
Compression mode : Lossy
Stream size : 478 MiB (4%)
Title : Stereo
Language : German
Service kind : Complete Main
Default : No
Forced : No

Menu
00:00:00.000 : :Chapter 1
00:02:09.529 : :Chapter 2
00:12:32.752 : :Chapter 3
00:13:57.970 : :Chapter 4
00:15:44.377 : :Chapter 5
00:18:11.791 : :Chapter 6
00:21:20.513 : :Chapter 7
00:27:59.311 : :Chapter 8
00:28:15.961 : :Chapter 9
00:29:43.115 : :Chapter 10
00:30:42.908 : :Chapter 11
00:36:55.113 : :Chapter 12
00:37:50.668 : :Chapter 13
00:40:03.368 : :Chapter 14
00:43:06.017 : :Chapter 15
00:46:26.951 : :Chapter 16
00:51:13.070 : :Chapter 17
00:51:48.439 : :Chapter 18
00:55:35.866 : :Chapter 19
00:56:38.061 : :Chapter 20
00:57:52.636 : :Chapter 21
01:05:22.285 : :Chapter 22
01:06:57.714 : :Chapter 23
01:13:54.530 : :Chapter 24
01:16:47.837 : :Chapter 25
01:19:59.561 : :Chapter 26
01:22:42.424 : :Chapter 27
01:26:31.286 : :Chapter 28
01:31:46.835 : :Chapter 29
01:37:42.423 : :Chapter 30
01:39:42.810 : :Chapter 31
01:46:21.308 : :Chapter 32
01:48:50.858 : :Chapter 33
01:50:55.015 : :Chapter 34
01:52:37.417 : :Chapter 35
01:54:39.539 : :Chapter 36
01:57:08.121 : :Chapter 37
01:58:07.047 : :Chapter 38
02:02:41.888 : :Chapter 39
02:08:22.395 : :Chapter 40
02:17:59.872 : :Chapter 41
02:27:23.268 : :Chapter 42
02:29:04.002 : :Chapter 43
02:29:13.044 : :Chapter 44

资源下载
下载价格10 金币
VIP免费
所有资源都在百度网盘,如有链接失效、解压错误等、请联系管理微信:lgychcom
原文链接:https://www.lgych.com/52939.html,转载请注明出处。
0

评论163

请先
  1. 感谢楼主分享
    yxdqq3 2024-01-13 0
  2. 非常感谢wum
    1周前 0
  3. 好资源jn9
    1周前 0
1 7 8 9
左麟右李2004开心演唱会 Live 港版(4DVD-ISO21.1G )
左麟右李2004开心演唱会 Live 港版(4DVD-ISO21.1G )
8分钟前 有人购买 去瞅瞅看
本站资源均可通过签到或者评论免费获取,被一些朋友批量注册账号玩坏了;关闭自由注册,后面需要注册账号的朋友,请自助购买邀请码注册
显示验证码
没有账号?注册  忘记密码?