让-米歇尔·雅尔 Jean Michel Jarre - Jarre in China 2004《BDrip MKV 13.9G》

[视频信息]
视频编码: AVC1 - 内置 FFmpeg 解码器(h264, Thread Frame)
输入格式: AVC1(24 bits)
输入尺寸: 1920 × 1080(1.78:1)
输出格式: NV12(12 bits)
输出尺寸: 1920 × 1080(1.78:1)
帧率: 25
BitRate: 未知

[音频信息]
音频编码: PCM(0x1) - PCM
采样率: 48000 -> 48000 Hz
位率: 16 -> 16 位
声道数: 2 -> 2 声道
Bitrate: 1536 kbps

General
Complete name : H:\Jean Michel Jarre - Jarre in China (2004 1080p PCM AC3 DTS DVD Upscaling PAL to FHD 16x9 2021)\Jean Michel Jarre - Jarre in China (2004 1080p PCM AC3 DTS DVD Upscaling PAL to FHD 16x9 2021).mkv
Format : Matroska
Format version : Version 2
File size : 14.0 GiB
Duration : 1 h 44 min
Overall bit rate : 19.2 Mb/s
Writing application : libmatroska 1.4.1
Writing library : SolveigMM Matroska Muxer Version 1.0.2010.29

Video
ID : 1
Format : AVC
Format/Info : Advanced Video Codec
Format profile : Baseline@L4
Format settings : 1 Ref Frames
Format settings, CABAC : No
Format settings, Reference fra : 1 frame
Format settings, GOP : M=1, N=12
Codec ID : V_MPEG4/ISO/AVC
Duration : 1 h 44 min
Bit rate : 15.3 Mb/s
Width : 1 920 pixels
Height : 1 080 pixels
Display aspect ratio : 16:9
Frame rate mode : Constant
Frame rate : 25.000 FPS
Color space : YUV
Chroma subsampling : 4:2:0
Bit depth : 8 bits
Scan type : Progressive
Bits/(Pixel*Frame) : 0.295
Stream size : 11.2 GiB (80%)
Title : Druid® Upscaling DVD PAL to 1080p Topaz Video Enhanced AI 2021
Language : French
Default : Yes
Forced : No
Color range : Limited
Color primaries : BT.601 PAL
Transfer characteristics : BT.470 System B/G
Matrix coefficients : BT.470 System B/G

Audio #1
ID : 2
Format : PCM
Format settings : Little / Signed
Codec ID : A_PCM/INT/LIT
Duration : 1 h 44 min
Bit rate mode : Constant
Bit rate : 1 536 kb/s
Channel(s) : 2 channels
Sampling rate : 48.0 kHz
Bit depth : 16 bits
Stream size : 1.12 GiB (8%)
Title : Druid® WAV 2.0 1536 Kbps
Language : French
Default : Yes
Forced : Yes

Audio #2
ID : 3
Format : AC-3
Format/Info : Audio Coding 3
Commercial name : Dolby Digital
Codec ID : A_AC3
Duration : 1 h 44 min
Bit rate mode : Constant
Bit rate : 448 kb/s
Channel(s) : 6 channels
Channel layout : L R C LFE Ls Rs
Sampling rate : 48.0 kHz
Frame rate : 31.250 FPS (1536 SPF)
Compression mode : Lossy
Stream size : 335 MiB (2%)
Title : Druid® AC3 5.1 448 Kbps
Language : French
Service kind : Complete Main
Default : No
Forced : No

Audio #3
ID : 4
Format : DTS
Format/Info : Digital Theater Systems
Codec ID : A_DTS
Duration : 1 h 44 min
Bit rate mode : Constant
Bit rate : 1 510 kb/s
Channel(s) : 6 channels
Channel layout : C L R Ls Rs LFE
Sampling rate : 48.0 kHz
Frame rate : 93.750 FPS (512 SPF)
Bit depth : 24 bits
Compression mode : Lossy
Stream size : 1.10 GiB (8%)
Title : Druid® DTS 5.1 1510 Kbps
Language : French
Default : No
Forced : No

Menu
00:00:00.000 : en:01.Forbidden City
00:03:04.805 : en:02.Aero
00:07:01.045 : en:03.Oxygene 2
00:15:01.365 : en:04.Oxygene 4
00:19:04.525 : en:05.Geometry Of Love
00:24:33.885 : en:06.Small Band In The Rain
00:25:41.405 : en:07.Equinoxe 4
00:31:35.125 : en:08.Journey To Beijing
00:38:14.445 : en:09.Chronology 6
00:44:42.365 : en:10.Theremin Memories
00:48:09.445 : en:11.Zoolookologie
00:51:56.845 : en:12.Aerozone
00:57:09.405 : en:13.Aerology
01:00:44.765 : en:14.Chronology 3
01:06:14.205 : en:15.Vivaldi - Summer - Presto
01:09:49.525 : en:16.Fishing Junks At Sunset
01:21:58.325 : en:17.Rendez-Vous 4
01:26:34.525 : en:18.Souvenir Of China
01:31:20.445 : en:19.Rendez-Vous 2
01:40:38.068 : en:20.End Titles

 

资源下载
下载价格10 金币
VIP免费
所有资源都在百度网盘,如有链接失效、解压错误等、请联系管理微信:lgychcom
原文链接:https://www.lgych.com/51906.html,转载请注明出处。
0

评论176

请先
  1. 完全是宝库
    似曾相识 2023-01-09 0
  2. 谢谢楼主分享exw
    2023-01-15 0
  3. 谢谢分享vgp
    2023-01-16 0
  4. 很棒的资源。谢谢z9d
    2023-01-16 0
  5. 感谢分享0ar
    2023-01-16 0
  6. 很棒的资源。谢谢c3m
    2023-01-16 0
  7. 不错m1f
    2023-01-16 0
  8. 非常棒的资源tfi
    2023-01-16 0
  9. 讓-米歇爾·雅爾 Jean Michel Jarre - Jarre in China 2004
    daailgych 2023-01-17 0
  10. 谢谢分享gc9
    2023-01-18 0
  11. 雅尔于1981年首次来中国演出。
    mldmybox已购买 2024-01-07 0
  12. 好资源ni1
    2周前 0
  13. 谢谢分享mk6
    1周前 0
  14. 感谢分享
    Jixiansheng 1周前 0
  15. 感谢分享
    jishaofen 1周前 0
  16. 多谢楼主分享
    putonggongmin 7天前 0
1 7 8 9
周国贤 THE END 2022 香港红馆演唱会 - Endy Chow Jaugwokyin The End Live 2022 [BDISO 2BD 61.3GB]
周国贤 THE END 2022 香港红馆演唱会 - Endy Chow Jaugwokyin The End Live 2022 [BDISO 2BD 61.3GB]
8分钟前 有人购买 去瞅瞅看
本站资源均可通过签到或者评论免费获取,被一些朋友批量注册账号玩坏了;关闭自由注册,后面需要注册账号的朋友,请自助购买邀请码注册
显示验证码
没有账号?注册  忘记密码?