Korn - Live at Montreux 2004《Remux MKV 20.3G》

[视频信息]
视频编码: MPG2 - Native D3D9 DXVA Decoder(VLD) - NVIDIA Quadro M1000M
输入格式: MPG2(12 bits)
输入尺寸: 1920 × 1080(1.78:1)
输出格式: dxva
输出尺寸: 1920 × 1080(1.78:1)
帧率: 25
BitRate: 未知

[音频信息]
音频编码: PCM(0x1)
采样率: 48000 -> 48000 Hz
位率: 16 -> 16 位
声道数: 2 -> 2 声道
Bitrate: 1536 kbps

General
Unique ID                      : 178369383612890859528266955886183561640 (0x8630B196BAB109AABC871C2E29CBB9A8)
Complete name                  : K:\Korn - Live at Montreux [2004 г., Nu Metal, BD Remux].mkv\Korn - Live at Montreux [2004 г., Nu Metal, BD Remux].mkv
Format                         : Matroska
Format version                 : Version 2
File size                      : 20.4 GiB
Duration                       : 1 h 14 min
Overall bit rate mode          : Variable
Overall bit rate               : 38.9 Mb/s
Movie name                     : Korn - Live at Montreux [2004 г., Nu Metal, BD Remux]
Encoded date                   : UTC 2012-01-22 19:57:47
Writing application            : mkvmerge v5.2.1 ('A Far Off Place') built on Jan  2 2012 23:21:10
Writing library                : libebml v1.2.3 + libmatroska v1.3.0

Video
ID                             : 1
Format                         : MPEG Video
Format version                 : Version 2
Format profile                 : Main@High
Format settings                : BVOP
Format settings, BVOP          : Yes
Format settings, Matrix        : Default
Format settings, picture struc : Frame
Codec ID                       : V_MPEG2
Codec ID/Info                  : MPEG 1 or 2 Video
Duration                       : 1 h 14 min
Bit rate mode                  : Variable
Maximum bit rate               : 27.0 Mb/s
Width                          : 1 920 pixels
Height                         : 1 080 pixels
Display aspect ratio           : 16:9
Frame rate mode                : Constant
Frame rate                     : 25.000 FPS
Standard                       : PAL
Color space                    : YUV
Chroma subsampling             : 4:2:0
Bit depth                      : 8 bits
Scan type                      : Interlaced
Scan order                     : Top Field First
Compression mode               : Lossy
Time code of first frame       : 00:00:00:00
Time code source               : Group of pictures header
GOP, Open/Closed               : Closed
Title                          : Korn - Live at Montreux [2004 г., Nu Metal, BD Remux]
Language                       : English
Default                        : Yes
Forced                         : No
Color primaries                : BT.709
Transfer characteristics       : BT.709
Matrix coefficients            : BT.709

Audio #1
ID                             : 2
Format                         : PCM
Format settings                : Little / Signed
Codec ID                       : A_PCM/INT/LIT
Duration                       : 1 h 14 min
Bit rate mode                  : Constant
Bit rate                       : 1 536 kb/s
Channel(s)                     : 2 channels
Sampling rate                  : 48.0 kHz
Bit depth                      : 16 bits
Stream size                    : 823 MiB (4%)
Title                          : PCM [2.0 CH]
Language                       : English
Default                        : Yes
Forced                         : No

Audio #2
ID                             : 3
Format                         : MLP FBA
Format/Info                    : Meridian Lossless Packing FBA
Commercial name                : Dolby TrueHD
Codec ID                       : A_TRUEHD
Duration                       : 1 h 14 min
Bit rate mode                  : Variable
Maximum bit rate               : 5 148 kb/s
Channel(s)                     : 6 channels
Channel layout                 : L R C LFE Ls Rs
Sampling rate                  : 48.0 kHz
Frame rate                     : 1 200.000 FPS (40 SPF)
Bit depth                      : 24 bits
Compression mode               : Lossless
Title                          : Dolby True HD [5.1 CH]
Language                       : English
Default                        : No
Forced                         : No

Audio #3
ID                             : 4
Format                         : AC-3
Format/Info                    : Audio Coding 3
Commercial name                : Dolby Digital
Codec ID                       : A_AC3
Duration                       : 1 h 14 min
Bit rate mode                  : Constant
Bit rate                       : 448 kb/s
Channel(s)                     : 6 channels
Channel layout                 : L R C LFE Ls Rs
Sampling rate                  : 48.0 kHz
Frame rate                     : 31.250 FPS (1536 SPF)
Compression mode               : Lossy
Stream size                    : 240 MiB (1%)
Title                          : AC3 Embedded [5.1 CH]
Language                       : English
Service kind                   : Complete Main
Default                        : No
Forced                         : No

Audio #4
ID                             : 5
Format                         : DTS XLL
Format/Info                    : Digital Theater Systems
Commercial name                : DTS-HD Master Audio
Codec ID                       : A_DTS
Duration                       : 1 h 14 min
Bit rate mode                  : Variable
Channel(s)                     : 6 channels
Channel layout                 : C L R Ls Rs LFE
Sampling rate                  : 48.0 kHz
Frame rate                     : 93.750 FPS (512 SPF)
Bit depth                      : 24 bits
Compression mode               : Lossless
Title                          : DTS HD Master [3/2+1 CH]
Language                       : English
Default                        : No
Forced                         : No

Audio #5
ID                             : 6
Format                         : DTS
Format/Info                    : Digital Theater Systems
Codec ID                       : A_DTS
Duration                       : 1 h 14 min
Bit rate mode                  : Constant
Bit rate                       : 1 509 kb/s
Channel(s)                     : 6 channels
Channel layout                 : C L R Ls Rs LFE
Sampling rate                  : 48.0 kHz
Frame rate                     : 93.750 FPS (512 SPF)
Bit depth                      : 24 bits
Compression mode               : Lossy
Stream size                    : 808 MiB (4%)
Title                          : DTS Core [3/2+1 CH]
Language                       : English
Default                        : No
Forced                         : No

Menu
00:00:31.000                   : Right Now
00:04:20.000                   : Break Some Off
00:07:10.000                   : Got The Life
00:11:43.000                   : Here To Stay
00:16:32.000                   : Falling Away From Me
00:21:09.000                   : Blind
00:26:23.000                   : Shoots And Ladders
00:31:01.000                   : One
00:31:57.000                   : Freak On A Leash
00:36:17.000                   : Improvisation
00:37:37.000                   : A.D.I.D.A.S.
00:40:12.000                   : Dead Bodies Everywhere
00:46:05.000                   : Did My Time
00:50:15.000                   : Another Brick In The Wall
00:56:50.000                   : Faget
01:02:33.000                   : Somebody Someone
01:08:18.000                   : Y'All Want A Single

 

资源下载此资源下载价格为10金币,VIP免费,请先
所有资源都在百度网盘,如有链接失效、解压错误等、请联系管理微信:aimuvv
资源下载
下载价格10 金币
VIP免费
所有资源都在百度网盘,如有链接失效、解压错误等、请联系管理微信:aimuvv

原文链接:https://www.lgych.com/43177.html,转载请注明出处。

0

评论115

请先

  1. 太多好资源了!谢谢分享!
    simone 2022-06-28 0
  2. 太多好资源了!谢谢分享!
    luisi 2022-06-28 0
  3. 太多好资源了!谢谢分享!
    531707712 2022-06-28 0
  4. 太多好资源了!谢谢分享!
    simoneluisi 2022-06-28 0
  5. 太多好资源了!谢谢分享!
    simoneluisi1 2022-06-28 0
  6. 谢谢分享333
    hymhym 2022-07-01 0
  7. 谢谢分享
    971145 2022-07-01 0
  8. 谢谢分享个
    hym9711 2022-07-02 0
  9. 谢谢分享了
    hymhym 2022-07-02 0
  10. 谢谢分享w
    huyiming249 2022-07-02 0
  11. 谢谢分享、
    971145 2022-07-02 0
  12. 皮皮巴巴多谢分享!皮皮巴巴多谢分享!皮皮巴巴多谢分享!皮皮巴巴多谢分享!
    老牛吃嫩草 2022-07-11 0
  13. 谢谢分享!
    user_zbz 4周前 0
  14. 多谢分享好资源!
    wo94ty 2周前 0
1 4 5 6
华语蓝光合集 252部11T资源终极收藏!支持硬盘拷贝:https://www.lgych.com/cnbd/
显示验证码
没有账号? 注册  忘记密码?