Paul Anka - Live In Switzerland 2011《BDrip MKV 5.65G》

[视频信息]
视频编码: AVC1 - 内置 FFmpeg 解码器(h264, Thread Frame)
输入格式: AVC1(24 bits)
输入尺寸: 1920 × 1080(1.78:1)
输出格式: NV12(12 bits)
输出尺寸: 1920 × 1080(1.78:1)
帧率: 24
BitRate: 未知

[音频信息]
音频编码: DTS(0x2001) - FFmpegMininum64.dll(dca)
采样率: 48000 -> 48000 Hz
位率: 0 -> 16 位
声道数: 6 -> 2 声道
Bitrate: 1509 kbps

General
Unique ID : 206365285601749799711878377792442126740 (0x9B4082201887E6D3A701B5A27A36D194)
Complete name : H:\Paul Anka - Live In Switzerland 2011.mkv\Paul Anka - Live In Switzerland 2011.mkv
Format : Matroska
Format version : Version 4
File size : 6.56 GiB
Duration : 1 h 28 min
Overall bit rate : 10.6 Mb/s
Encoded date : UTC 2013-12-05 01:48:43
Writing application : mkvmerge v6.6.0 ('The Edge Of The In Between') built on Dec 1 2013 17:55:00
Writing library : libebml v1.3.0 + libmatroska v1.4.1

Video
ID : 1
Format : AVC
Format/Info : Advanced Video Codec
Format profile : High@L4.1
Format settings : CABAC / 4 Ref Frames
Format settings, CABAC : Yes
Format settings, Reference fra : 4 frames
Codec ID : V_MPEG4/ISO/AVC
Duration : 1 h 28 min
Bit rate : 9 094 kb/s
Width : 1 920 pixels
Height : 1 080 pixels
Display aspect ratio : 16:9
Frame rate mode : Constant
Frame rate : 24.000 FPS
Color space : YUV
Chroma subsampling : 4:2:0
Bit depth : 8 bits
Scan type : Progressive
Bits/(Pixel*Frame) : 0.183
Stream size : 5.50 GiB (84%)
Writing library : x264 core 138 r2358 9e941d1
Encoding settings : cabac=1 / ref=4 / deblock=1:0:0 / analyse=0x3:0x133 / me=umh / subme=8 / psy=1 / psy_rd=1.00:0.00 / mixed_ref=1 / me_range=16 / chroma_me=1 / trellis=1 / 8x8dct=1 / cqm=0 / deadzone=21,11 / fast_pskip=0 / chroma_qp_offset=-2 / threads=12 / lookahead_threads=2 / sliced_threads=0 / nr=0 / decimate=1 / interlaced=0 / bluray_compat=0 / constrained_intra=0 / bframes=3 / b_pyramid=2 / b_adapt=1 / b_bias=0 / direct=1 / weightb=1 / open_gop=0 / weightp=2 / keyint=250 / keyint_min=24 / scenecut=40 / intra_refresh=0 / rc_lookahead=40 / rc=2pass / mbtree=1 / bitrate=9094 / ratetol=1.0 / qcomp=0.60 / qpmin=0 / qpmax=69 / qpstep=4 / cplxblur=20.0 / qblur=0.5 / ip_ratio=1.40 / aq=1:1.00
Language : English
Default : Yes
Forced : No

Audio
ID : 2
Format : DTS
Format/Info : Digital Theater Systems
Codec ID : A_DTS
Duration : 1 h 28 min
Bit rate mode : Constant
Bit rate : 1 509 kb/s
Channel(s) : 6 channels
Channel layout : C L R Ls Rs LFE
Sampling rate : 48.0 kHz
Frame rate : 93.750 FPS (512 SPF)
Bit depth : 24 bits
Compression mode : Lossy
Stream size : 956 MiB (14%)
Default : Yes
Forced : No

Menu
00:00:00.000 : en:00:00:00.000
00:02:46.000 : en:00:02:46.000
00:05:08.000 : en:00:05:08.000
00:09:15.000 : en:00:09:15.000
00:12:10.000 : en:00:12:10.000
00:16:30.000 : en:00:16:30.000
00:25:31.000 : en:00:25:31.000
00:30:20.000 : en:00:30:20.000
00:37:11.500 : en:00:37:11.500
00:40:06.000 : en:00:40:06.000
00:41:15.000 : en:00:41:15.000
00:42:37.000 : en:00:42:37.000
00:44:12.417 : en:00:44:12.417
00:46:35.000 : en:00:46:35.000
00:51:21.000 : en:00:51:21.000
00:55:16.000 : en:00:55:16.000
00:56:13.000 : en:00:56:13.000
00:58:38.000 : en:00:58:38.000
01:01:55.000 : en:01:01:55.000
01:09:11.000 : en:01:09:11.000
01:15:30.000 : en:01:15:30.000
01:18:55.000 : en:01:18:55.000
01:20:44.000 : en:01:20:44.000
01:21:33.000 : en:01:21:33.000
01:24:06.000 : en:01:24:06.000

资源下载
下载价格2 金币
VIP免费
所有资源都在百度网盘,如有链接失效、解压错误等、请联系管理微信:lgychcom
原文链接:https://www.lgych.com/52295.html,转载请注明出处。
0

评论173

请先
  1. Paul Anka - Live In Switzerland 2011
    daailgych 2023-01-16 0
  2. 好资源感谢分享duk
    2023-01-16 0
  3. 感谢分享17t
    2023-01-16 0
  4. 不错pvc
    2023-01-16 0
  5. 不错r9i
    2023-01-16 0
  6. 谢谢楼主无私奉献fue
    2023-01-16 0
  7. 感谢分享9e1
    2023-01-18 0
  8. 好资源,感谢分享
    JonesTOR 2023-08-03 0
  9. 好的资源感谢分享~
    JonesTOR 2023-08-07 0
  10. 谢谢dwj
    2周前 0
  11. 感谢分享ljy
    2周前 0
  12. 感谢分享8wt
    2周前 0
  13. 非常感谢dpa
    2周前 0
1 7 8 9
MC 张天赋 - This Is MC 香港红馆演唱会 2023 [WEB-DL MOV 18.3GB]
MC 张天赋 - This Is MC 香港红馆演唱会 2023 [WEB-DL MOV 18.3GB]
刚刚 有人购买 去瞅瞅看
显示验证码
没有账号?注册  忘记密码?