Allan Taylor - 50 Years On The Road 2017《WEB-DL MKV 4.37GB》

[视频信息]
视频编码: AVC1 - Native D3D9 DXVA Decoder(VLD) - Intel(R) UHD Graphics 770
输入格式: AVC1(24 bits)
输入尺寸: 1920 × 1080(1.78:1)
输出格式: dxva
输出尺寸: 1920 × 1080(1.78:1)
帧率: 25
BitRate: 未知

[音频信息]
音频编码: AC3(0x2000) - 内置 FFmpeg 解码器(ac3)
采样率: 48000 -> 48000 Hz
位率: 0 -> 16 位
声道数: 2 -> 2 声道
Bitrate: 192 kbps

General
Unique ID : 253845400739308107069191711108126173334 (0xBEF8D889D07DAA09A5E026EA4A2F6896)
Complete name : Y:\Allan Taylor - 50 Years On The Road (2017).mkv\Allan Taylor - 50 Years On The Road (2017).mkv
Format : Matroska
Format version : Version 4
File size : 4.37 GiB
Duration : 1 h 8 min
Overall bit rate : 9 155 kb/s
Encoded date : UTC 2017-12-03 14:01:43
Writing application : mkvmerge v8.3.0 ('Over the Horizon') 64bit
Writing library : libebml v1.3.1 + libmatroska v1.4.2

Video
ID : 1
Format : AVC
Format/Info : Advanced Video Codec
Format profile : High@L4.1
Format settings : CABAC / 4 Ref Frames
Format settings, CABAC : Yes
Format settings, Reference fra : 4 frames
Codec ID : V_MPEG4/ISO/AVC
Duration : 1 h 8 min
Bit rate : 8 962 kb/s
Width : 1 920 pixels
Height : 1 080 pixels
Display aspect ratio : 16:9
Frame rate mode : Constant
Frame rate : 25.000 FPS
Color space : YUV
Chroma subsampling : 4:2:0
Bit depth : 8 bits
Scan type : Progressive
Bits/(Pixel*Frame) : 0.173
Stream size : 4.28 GiB (98%)
Writing library : x264 core 152 r2851 ba24899
Encoding settings : cabac=1 / ref=4 / deblock=1:-3:-3 / analyse=0x3:0x133 / me=umh / subme=9 / psy=1 / psy_rd=1.00:0.00 / mixed_ref=1 / me_range=16 / chroma_me=1 / trellis=2 / 8x8dct=1 / cqm=0 / deadzone=21,11 / fast_pskip=0 / chroma_qp_offset=-2 / threads=24 / lookahead_threads=2 / sliced_threads=0 / nr=0 / decimate=1 / interlaced=0 / bluray_compat=0 / constrained_intra=0 / bframes=3 / b_pyramid=2 / b_adapt=1 / b_bias=0 / direct=3 / weightb=1 / open_gop=0 / weightp=2 / keyint=250 / keyint_min=25 / scenecut=40 / intra_refresh=0 / rc_lookahead=50 / rc=2pass / mbtree=1 / bitrate=8962 / ratetol=1.0 / qcomp=0.60 / qpmin=0 / qpmax=69 / qpstep=4 / cplxblur=20.0 / qblur=0.5 / ip_ratio=1.40 / aq=1:1.00
Language : English
Default : Yes
Forced : No

Audio
ID : 2
Format : AC-3
Format/Info : Audio Coding 3
Commercial name : Dolby Digital
Codec ID : A_AC3
Duration : 1 h 8 min
Bit rate mode : Constant
Bit rate : 192 kb/s
Channel(s) : 2 channels
Channel layout : L R
Sampling rate : 48.0 kHz
Frame rate : 31.250 FPS (1536 SPF)
Compression mode : Lossy
Stream size : 93.9 MiB (2%)
Language : English
Service kind : Complete Main
Default : Yes
Forced : No

Menu
00:00:00.000 : en:00:00:00.000
00:01:20.720 : en:00:01:20.720
00:06:02.800 : en:00:06:02.800
00:10:15.560 : en:00:10:15.560
00:18:26.080 : en:00:18:26.080
00:22:46.320 : en:00:22:46.320
00:26:04.280 : en:00:26:04.280
00:30:24.040 : en:00:30:24.040
00:35:12.640 : en:00:35:12.640
00:39:55.280 : en:00:39:55.280
00:45:08.880 : en:00:45:08.880
00:49:48.520 : en:00:49:48.520
00:55:45.480 : en:00:55:45.480
01:01:17.840 : en:01:01:17.840
01:07:44.160 : en:01:07:44.160

资源下载
下载价格3 金币
所有资源都在百度网盘,如有链接失效、解压错误等、请联系管理微信:lgychcom
原文链接:https://www.lgych.com/53176.html,转载请注明出处。
0

评论156

请先
  1. 支持发展越来越好7cy
    2023-01-16 0
  2. 谢谢分享w14
    2023-01-16 0
  3. 支持发展越来越好f8g
    2023-01-16 0
  4. 支持发展越来越好vb4
    2023-01-16 0
  5. 好资源感谢分享gtl
    2023-01-16 0
  6. 支持发展越来越好7k1
    2023-01-16 0
  7. 支持发展越来越好~
    JonesTOR 2023-07-23 0
  8. 感谢分享!
    tigerzazhi 2023-08-24 0
  9. 感谢分享
    tigerzazhi 2023-10-05 0
  10. 不错gio
    3周前 0
  11. 非常感谢1tu
    2周前 0
  12. 谢谢3j8
    2周前 0
  13. 不错ro1
    2周前 0
  14. 支持发展越来越好fhx
    2周前 0
  15. 谢谢t8w
    2周前 0
  16. 谢谢mf8
    2周前 0
1 6 7 8
星街すいせい - Hoshimachi Suisei 2nd Solo Live Shout in Crisis 2023 [BDMV 22.2GB]
星街すいせい - Hoshimachi Suisei 2nd Solo Live Shout in Crisis 2023 [BDMV 22.2GB]
3分钟前 有人购买 去瞅瞅看
显示验证码
没有账号?注册  忘记密码?