Vasco Rossi Modena Park 2017《WEB-DL MKV 10.6GB》

[视频信息]
视频编码: HVC1 - Native D3D9 DXVA Decoder(VLD) - Intel(R) UHD Graphics 770
输入格式: HVC1(24 bits)
输入尺寸: 1920 × 816(2.35:1)
输出格式: dxva
输出尺寸: 1920 × 816(2.35:1)
帧率: 25
BitRate: 未知

[音频信息]
音频编码: AC3(0x2000) - 内置 FFmpeg 解码器(ac3)
采样率: 48000 -> 48000 Hz
位率: 0 -> 16 位
声道数: 6 -> 2 声道
Bitrate: 384 kbps

General
Unique ID : 299570550483896727652000502740869108171 (0xE15F307A1DD56575194D6B8DBDFAD1CB)
Complete name : Y:\Vasco Rossi Modena Park 2017 [x265] [1080p] (by.phadron).mkv\[2017] Vasco Rossi Modena Park [x265] [1080p] (by.phadron).mkv
Format : Matroska
Format version : Version 4
File size : 10.7 GiB
Duration : 3 h 23 min
Overall bit rate : 7 533 kb/s
Encoded date : UTC 2018-08-03 20:43:45 / UTC 2018-07-29T11:32:02Z
Writing application : mkvmerge v25.0.0 ('Prog Noir') 64-bit
Writing library : libebml v1.3.6 + libmatroska v1.4.9 / Lavf57.7.2
Cover : Yes
Attachments : vasco-modena-17_cover.jpg

Video
ID : 1
Format : HEVC
Format/Info : High Efficiency Video Coding
Format profile : Main@L4@Main
Codec ID : V_MPEGH/ISO/HEVC
Duration : 3 h 23 min
Bit rate : 7 146 kb/s
Width : 1 920 pixels
Height : 816 pixels
Display aspect ratio : 2.35:1
Frame rate mode : Constant
Frame rate : 25.000 FPS
Color space : YUV
Chroma subsampling : 4:2:0
Bit depth : 8 bits
Bits/(Pixel*Frame) : 0.182
Stream size : 10.1 GiB (95%)
Writing library : x265 2.1:[Windows][GCC 5.3.1][64 bit] 8bit
Encoding settings : wpp / ctu=64 / min-cu-size=8 / max-tu-size=32 / tu-intra-depth=1 / tu-inter-depth=1 / me=1 / subme=2 / merange=57 / no-rect / no-amp / max-merge=2 / temporal-mvp / no-early-skip / rskip / rdpenalty=0 / no-tskip / no-tskip-fast / strong-intra-smoothing / no-lossless / no-cu-lossless / no-constrained-intra / no-fast-intra / open-gop / no-temporal-layers / interlace=0 / keyint=250 / min-keyint=25 / scenecut=40 / rc-lookahead=20 / lookahead-slices=5 / bframes=4 / bframe-bias=0 / b-adapt=2 / ref=3 / limit-refs=3 / no-limit-modes / weightp / no-weightb / aq-mode=1 / qg-size=32 / aq-strength=1.00 / cbqpoffs=0 / crqpoffs=0 / rd=3 / psy-rd=2.00 / rdoq-level=0 / psy-rdoq=0.00 / log2-max-poc-lsb=8 / no-rd-refine / signhide / deblock=0:0 / sao / no-sao-non-deblock / b-pyramid / cutree / no-intra-refresh / rc=crf / crf=18.0 / qcomp=0.60 / qpmin=0 / qpmax=69 / qpstep=4 / ipratio=1.40 / pbratio=1.30
Language : Italian
Default : Yes
Forced : No
Color range : Limited
Color primaries : BT.709
Transfer characteristics : BT.709
Matrix coefficients : BT.709

Audio
ID : 2
Format : AC-3
Format/Info : Audio Coding 3
Commercial name : Dolby Digital
Codec ID : A_AC3
Duration : 3 h 23 min
Bit rate mode : Constant
Bit rate : 384 kb/s
Channel(s) : 6 channels
Channel layout : L R C LFE Ls Rs
Sampling rate : 48.0 kHz
Frame rate : 31.250 FPS (1536 SPF)
Compression mode : Lossy
Stream size : 558 MiB (5%)
Title : AC3 384 5.1
Language : Italian
Service kind : Complete Main
Default : Yes
Forced : No

Menu
00:00:00.000 : :Intro
00:04:05.160 : :Colpa D’Alfredo
00:08:19.080 : :Alibi
00:18:03.920 : :Blasco Rossi
00:23:05.480 : :Bollicine
00:29:13.640 : :Ogni volta
00:33:33.200 : :Anima fragile
00:40:59.480 : :Spendida giornata
00:46:11.680 : :Ieri ho sgozzato mio figlio
00:49:37.120 : :Delusa/T’immagini/Mi piaci perché/Gioca con me/Stasera/Sono ancora in coma/Rock & roll show
00:54:01.040 : :Vivere una favola
00:59:49.320 : :Non mi va
01:05:41.200 : :Cosa vuoi da me
01:09:15.240 : :Siamo soli
01:13:15.080 : :Come nelle favole
01:17:28.440 : :Vivere
01:23:32.680 : :Sono innocente ma…
01:27:15.640 : :Rewind
01:31:32.760 : :Liberi… liberi
01:42:30.840 : :Ed il tempo crea eroi
01:45:26.840 : :Una canzone per te
01:47:07.280 : :L’una per te
01:49:17.960 : :Ridere di te
01:52:11.760 : :Va bene, va bene così
01:55:38.000 : :Senza parole
02:01:12.800 : :Stupendo
02:09:32.960 : :Gli spari sopra
02:13:21.720 : :Sballi ravvicinati del terzo tipo
02:20:12.120 : :C’è chi dice no
02:25:16.080 : :Un mondo migliore
02:35:50.080 : :I soliti
02:39:33.800 : :Sally
02:44:28.240 : :Un senso
02:48:27.000 : :Siamo solo noi
02:58:29.480 : :Vita spericolata
03:02:27.800 : :Canzone
03:04:55.560 : :Albachiara
03:11:53.840 : :Brava Giulia
03:15:23.680 : :Ormai è tardi
03:17:04.120 : :Un gran bel film
03:21:34.120 : :Albachiara con Gaetano Curreri

 

资源下载
下载价格5 金币
VIP免费
所有资源都在百度网盘,如有链接失效、解压错误等、请联系管理微信:lgychcom
原文链接:https://www.lgych.com/53610.html,转载请注明出处。
0

评论142

请先
  1. 好资源gzk
    2周前 0
  2. 不错mf4
    2周前 0
1 6 7 8
陈奕迅 - SOLIDAYS_EASON_CHAN【DVD-ISO  4.29G】
陈奕迅 - SOLIDAYS_EASON_CHAN【DVD-ISO 4.29G】
8分钟前 有人购买 去瞅瞅看
显示验证码
没有账号?注册  忘记密码?