BanG Dream! LIVE - Poppin'Party x SILENT SIREN ~NO GIRL NO CRY 2019《MKV BDrip 24.6GB》

[视频信息]
视频编码: AVC1 - Native D3D9 DXVA Decoder(VLD) - Intel(R) UHD Graphics 770
输入格式: AVC1(24 bits)
输入尺寸: 1920 × 1080(1.78:1)
输出格式: dxva
输出尺寸: 1920 × 1080(1.78:1)
帧率: 23.976
BitRate: 未知

[音频信息]
音频编码: FLAC Framed(0xf1ac) - OpenCodec(FLAC Decoder)
采样率: 48000 -> 48000 Hz
位率: 24 -> 16 位
声道数: 2 -> 2 声道
Bitrate: 2304 kbps

General
Unique ID : 224748259121116705005526606106371538513 (0xA914F0B231AFE7C48FC95C906A67BE51)
Complete name : Y:\115\云下载\第1页\BAN-2019-24.6\BanG Dream! LIVE - Poppin'Party x SILENT SIREN ~NO GIRL NO CRY 2019 [BDRip 1080p].mkv\BanG Dream! LIVE - Poppin'Party x SILENT SIREN ~NO GIRL NO CRY~ Day 1 [BDRip 1080p].mkv
Format : Matroska
Format version : Version 4
File size : 11.6 GiB
Duration : 2 h 49 min
Overall bit rate mode : Variable
Overall bit rate : 9 846 kb/s
Movie name : Poppin'Party×SILENT SIREN「NO GIRL NO CRY」Disc1
Encoded date : UTC 2021-05-10 18:09:21
Writing application : mkvmerge v56.1.0 ('My Friend') 64-bit
Writing library : libebml v1.4.2 + libmatroska v1.6.4
Cover : Yes
Attachments : cover.jpg

Video
ID : 1
Format : AVC
Format/Info : Advanced Video Codec
Format profile : High@L4.2
Format settings : CABAC / 4 Ref Frames
Format settings, CABAC : Yes
Format settings, Reference fra : 4 frames
Codec ID : V_MPEG4/ISO/AVC
Duration : 2 h 49 min
Bit rate : 8 000 kb/s
Width : 1 920 pixels
Height : 1 080 pixels
Display aspect ratio : 16:9
Frame rate mode : Constant
Frame rate : 23.976 (24000/1001) FPS
Color space : YUV
Chroma subsampling : 4:2:0
Bit depth : 8 bits
Scan type : Progressive
Bits/(Pixel*Frame) : 0.161
Stream size : 9.45 GiB (81%)
Writing library : x264 core 161 r3048+53M 0749c36 t_mod_New [(8 & 10)-bit@all X86_64]
Encoding settings : cabac=1 / ref=4 / deblock=1:-1:-1 / analyse=0x3:0x133 / me=umh / subme=10 / psy=1 / fade_compensate=0.00 / psy_rd=1.00:0.00 / mixed_ref=1 / me_range=32 / chroma_me=1 / trellis=2 / 8x8dct=1 / cqm=0 / deadzone=21,11 / fast_pskip=1 / chroma_qp_offset=-2 / threads=34 / lookahead_threads=8 / sliced_threads=0 / nr=0 / decimate=1 / interlaced=0 / bluray_compat=0 / constrained_intra=0 / fgo=0 / bframes=16 / b_pyramid=2 / b_adapt=2 / b_bias=0 / direct=3 / weightb=1 / open_gop=0 / weightp=2 / keyint=250 / keyint_min=23 / scenecut=40 / intra_refresh=0 / rc_lookahead=60 / rc=2pass / mbtree=1 / bitrate=8000 / ratetol=1.0 / qcomp=0.70 / qpmin=0:0:0 / qpmax=69:69:69 / qpstep=4 / cplxblur=20.0 / qblur=0.5 / ip_ratio=1.40 / aq=3:1.00 / aq-sensitivity=10.00 / aq-factor=1.00:1.00:1.00 / aq2=0 / aq3=0
Language : Japanese
Default : Yes
Forced : No
Color range : Limited
Color primaries : BT.709
Transfer characteristics : BT.709
Matrix coefficients : BT.709

Audio
ID : 2
Format : FLAC
Format/Info : Free Lossless Audio Codec
Codec ID : A_FLAC
Duration : 2 h 49 min
Bit rate mode : Variable
Bit rate : 1 834 kb/s
Channel(s) : 2 channels
Channel layout : L R
Sampling rate : 48.0 kHz
Frame rate : 11.719 FPS (4096 SPF)
Bit depth : 24 bits
Compression mode : Lossless
Stream size : 2.16 GiB (19%)
Writing library : libFLAC 1.3.2 (UTC 2017-01-01)
Language : Japanese
Default : Yes
Forced : No

Menu
00:00:00.000 : ja:Opening Act by Roselia
00:00:48.006 : ja:LOUDER by Roselia
00:04:20.426 : ja:R by Roselia
00:09:07.838 : ja:Roselia members' introduction
00:10:44.644 : ja:BRAVE JEWEL by Roselia
00:14:51.765 : ja:06
00:15:38.938 : ja:Passionate Starmine (熱色スターマイン) by Roselia
00:20:54.586 : ja:Intro performance by Poppin'Party
00:25:42.832 : ja:KIZUNA MUSIC♪ (キズナミュージック♪) by Poppin'Party
00:30:58.857 : ja:B.O.F by Poppin'Party
00:34:38.159 : ja:11
00:38:38.691 : ja:Happy Happy Party! by Poppin'Party
00:43:24.101 : ja:13
00:47:15.833 : ja:Dreamers Go! by Poppin'Party
00:51:37.427 : ja:Teardrops by Poppin'Party
00:55:19.316 : ja:If In August (八月のif) by Poppin'Party
01:00:19.616 : ja:17
01:02:21.487 : ja:Sparkling Dreaming ~Sing Girls~ (キラキラだとか夢だとか ~Sing Girls~) by Poppin'Party
01:07:29.045 : ja:19
01:08:41.617 : ja:NO GIRL NO CRY by Poppin'Party
01:13:53.929 : ja:Time Lapse by Poppin'Party
01:17:59.800 : ja:STAR BEAT! ~The Heartbeat of the Stars~ (STAR BEAT!〜ホシノコドウ〜) by Poppin'Party
01:23:51.026 : ja:Intro performance by SILENT SIREN
01:25:09.813 : ja:Fujiyama Disco (フジヤマディスコ) by SILENT SIREN
01:29:47.382 : ja:Hachigatsu no Yoru (八月の夜) by SILENT SIREN
01:34:22.156 : ja:26
01:35:43.404 : ja:27
01:36:38.375 : ja:Guru Guru Wonderland (ぐるぐるワンダーランド) by SILENT SIREN
01:40:59.553 : ja:29
01:42:57.880 : ja:What Show is it ? by SILENT SIREN
01:47:23.103 : ja:31
01:50:57.484 : ja:Biisan (ビーサン) by SILENT SIREN
01:56:18.054 : ja:33
02:03:31.362 : ja:NO GIRL NO CRY by SILENT SIREN
02:08:43.298 : ja:Tenkaippin no Theme (天下一品のテーマ) by SILENT SIREN
02:11:58.577 : ja:36
02:14:00.615 : ja:Joshikou Sensou (女子校戦争) by SILENT SIREN
02:18:16.788 : ja:ALC.Monster by SILENT SIREN
02:22:18.446 : ja:Koi no Esper (恋のエスパー) by SILENT SIREN
02:30:42.116 : ja:40
02:35:58.182 : ja:41
02:40:45.677 : ja:42
02:41:53.995 : ja:Cherry Bomb by Poppin'Party & SILENT SIREN
02:46:31.606 : ja:End

资源下载此资源下载价格为10金币,VIP免费,请先
所有资源都在百度网盘,如有链接失效、解压错误等、请联系管理微信:aimuvv
资源下载
下载价格10 金币
VIP免费
所有资源都在百度网盘,如有链接失效、解压错误等、请联系管理微信:aimuvv

原文链接:https://www.lgych.com/53483.html,转载请注明出处。

0

评论61

请先

  1. 感谢楼主的好碟分享
    terrisk 12小时前 0
1 2 3 4
华语蓝光合集 252部11T资源终极收藏!支持硬盘拷贝:https://www.lgych.com/cnbd/
显示验证码
没有账号? 注册  忘记密码?