Iron Maiden - Rock am Ring 2014 720P《HDTV TS 11.7GB》

[视频信息]
视频编码: H264 - Native D3D9 DXVA Decoder(VLD) - Intel(R) UHD Graphics 770
输入格式: H264(24 bits)
输入尺寸: 1280 × 720(1.78:1)
输出格式: dxva
输出尺寸: 1280 × 720(1.78:1)
帧率: 50
BitRate: 未知

[音频信息]
音频编码: AC3(0x2000) - 内置 FFmpeg 解码器(ac3)
采样率: 48000 -> 48000 Hz
位率: 0 -> 16 位
声道数: 2 -> 2 声道
Bitrate: 448 kbps

General
ID : 1039 (0x40F)
Complete name : Y:\Iron Maiden - Rock am Ring 2014.TS\Iron Maiden - Rock am Ring 2014.TS
Format : MPEG-TS
File size : 11.8 GiB
Duration : 1 h 50 min
Overall bit rate mode : Variable
Overall bit rate : 15.2 Mb/s

Video
ID : 5421 (0x152D)
Menu ID : 10377 (0x2889)
Format : AVC
Format/Info : Advanced Video Codec
Format profile : High@L4
Format settings : CABAC / 4 Ref Frames
Format settings, CABAC : Yes
Format settings, Reference fra : 4 frames
Codec ID : 27
Duration : 1 h 50 min
Bit rate : 13.6 Mb/s
Width : 1 280 pixels
Height : 720 pixels
Display aspect ratio : 16:9
Frame rate : 50.000 FPS
Color space : YUV
Chroma subsampling : 4:2:0
Bit depth : 8 bits
Scan type : Progressive
Bits/(Pixel*Frame) : 0.296
Stream size : 10.5 GiB (90%)

Audio #1
ID : 5422 (0x152E)
Menu ID : 10377 (0x2889)
Format : MPEG Audio
Format version : Version 1
Format profile : Layer 2
Codec ID : 3
Duration : 1 h 50 min
Bit rate mode : Constant
Bit rate : 192 kb/s
Channel(s) : 2 channels
Sampling rate : 48.0 kHz
Frame rate : 41.667 FPS (1152 SPF)
Compression mode : Lossy
Delay relative to video : -1 s 94 ms
Stream size : 152 MiB (1%)
Language : German

Audio #2
ID : 5423 (0x152F)
Menu ID : 10377 (0x2889)
Format : MPEG Audio
Format version : Version 1
Format profile : Layer 2
Codec ID : 3
Duration : 1 h 50 min
Bit rate mode : Constant
Bit rate : 192 kb/s
Channel(s) : 2 channels
Sampling rate : 48.0 kHz
Frame rate : 41.667 FPS (1152 SPF)
Compression mode : Lossy
Delay relative to video : -1 s 94 ms
Stream size : 152 MiB (1%)
Language : German
Editorial classification : Visual impaired commentary
Mix type : Independent

Audio #3
ID : 5426 (0x1532)
Menu ID : 10377 (0x2889)
Format : AC-3
Format/Info : Audio Coding 3
Commercial name : Dolby Digital
Codec ID : 6
Duration : 1 h 50 min
Bit rate mode : Constant
Bit rate : 448 kb/s
Channel(s) : 2 channels
Channel layout : L R
Sampling rate : 48.0 kHz
Frame rate : 31.250 FPS (1536 SPF)
Compression mode : Lossy
Delay relative to video : -1 s 126 ms
Stream size : 355 MiB (3%)
Language : German
Service kind : Complete Main

Other
ID : 5424 (0x1530)-100
Menu ID : 10377 (0x2889)
Format : Teletext
Language : German

Menu
ID : 5420 (0x152C)
Menu ID : 10377 (0x2889)
Format : AVC / MPEG Audio / MPEG Audio / Teletext / AC-3 / / / DVB Subtitle
Duration : 1 h 50 min
List : 5421 (0x152D) (AVC) / 5422 (0x152E) (MPEG Audio, German) / 5423 (0x152F) (MPEG Audio, German) / 5424 (0x1530)-100 (Teletext, de) / 5426 (0x1532) (AC-3, German) / 370 (0x172) () / 2171 (0x87B) () / 5425 (0x1531) (DVB Subtitle)
Language : / German / German / German / German

 

资源下载
下载价格5 金币
VIP免费
所有资源都在百度网盘,如有链接失效、解压错误等、请联系管理微信:lgychcom
原文链接:https://www.lgych.com/53918.html,转载请注明出处。
0

评论196

请先
  1. 谢谢分享sgu
    2023-01-16 0
  2. 谢谢楼主分享xio
    2023-01-16 0
  3. 看起来不错,感谢分享~
    JonesTOR 2023-07-16 0
  4. 国外的摇滚牛啊
    JonesTOR 2023-07-20 0
  5. 谢谢分享谢谢分享
    ychh 2023-08-01 0
  6. 感谢分享
    yb0718 2023-08-07 0
  7. 感谢你的分享
    wxsm 2023-10-10 0
  8. 感谢大佬分享
    Jixiansheng 2023-11-07 0
  9. 感谢分享
    luoqi525 2024-01-11 0
  10. 感谢分享
    luoqi524 2024-01-11 0
  11. 感谢楼主分享
    yxdqq1 2024-01-25 0
  12. 好资源10v
    3周前 0
  13. 支持发展越来越好q6y
    3周前 0
  14. 谢谢分享dq7
    3周前 0
  15. 摇摇摇摇,真喜欢。
    GZX2020 2周前 0
  16. 听不懂英文,下载学习一下
    GZX2020 2周前 0
1 8 9 10
王杰 精选 - SACD COLLECTION [DSD DSF 3.10GB]
王杰 精选 - SACD COLLECTION [DSD DSF 3.10GB]
8分钟前 有人购买 去瞅瞅看
显示验证码
没有账号?注册  忘记密码?