舞姬 . 莫斯科大剧院 La Bayadere Bolshoi Ballet. 20.01.2019《BDrip MKV 14.8GB》

[视频信息]
视频编码: AVC1 - Native D3D9 DXVA Decoder(VLD) - Intel(R) UHD Graphics 770
输入格式: AVC1(24 bits)
输入尺寸: 1280 × 720(1.78:1)
输出格式: dxva
输出尺寸: 1280 × 720(1.78:1)
帧率: 50
BitRate: 未知

[音频信息]
音频编码: AC3(0x2000) - 内置 FFmpeg 解码器(ac3)
采样率: 48000 -> 48000 Hz
位率: 0 -> 16 位
声道数: 6 -> 2 声道
Bitrate: 448 kbps

General
Unique ID : 212625889405201137679037374278325401947 (0x9FF641B96F0A9822F96E532B162E795B)
Complete name : Y:\舞姬 . 莫斯科大剧院 2019\01.La Bayadere. (Part I). Bolshoi Ballet. 20.01.2019. AC-3. 720p_(J silver).mkv
Format : Matroska
Format version : Version 4
File size : 5.58 GiB
Duration : 1 h 5 min
Overall bit rate mode : Variable
Overall bit rate : 12.3 Mb/s
Encoded date : UTC 2019-01-22 09:59:35
Writing application : mkvmerge v28.2.0 ('The Awakening') 32-bit
Writing library : libebml v1.3.6 + libmatroska v1.4.9

Video
ID : 1
Format : AVC
Format/Info : Advanced Video Codec
Format profile : Main@L4
Format settings : CABAC / 4 Ref Frames
Format settings, CABAC : Yes
Format settings, Reference fra : 4 frames
Format settings, GOP : M=2, N=22
Codec ID : V_MPEG4/ISO/AVC
Duration : 1 h 5 min
Bit rate mode : Variable
Bit rate : 11.8 Mb/s
Maximum bit rate : 14.4 Mb/s
Width : 1 280 pixels
Height : 720 pixels
Display aspect ratio : 16:9
Frame rate mode : Constant
Frame rate : 50.000 FPS
Color space : YUV
Chroma subsampling : 4:2:0
Bit depth : 8 bits
Scan type : Progressive
Bits/(Pixel*Frame) : 0.256
Stream size : 5.38 GiB (96%)
Default : No
Forced : No
Color range : Limited
Color primaries : BT.709
Transfer characteristics : BT.709
Matrix coefficients : BT.709

Audio
ID : 2
Format : AC-3
Format/Info : Audio Coding 3
Commercial name : Dolby Digital
Codec ID : A_AC3
Duration : 1 h 5 min
Bit rate mode : Constant
Bit rate : 448 kb/s
Channel(s) : 6 channels
Channel layout : L R C LFE Ls Rs
Sampling rate : 48.0 kHz
Frame rate : 31.250 FPS (1536 SPF)
Compression mode : Lossy
Stream size : 209 MiB (4%)
Language : English
Service kind : Complete Main
Default : Yes
Forced : No

 

资源下载
下载价格10 金币
VIP免费
所有资源都在百度网盘,如有链接失效、解压错误等、请联系管理微信:lgychcom
原文链接:https://www.lgych.com/54728.html,转载请注明出处。
0

评论184

请先
  1. 支持发展越来越好1g8
    2023-01-17 0
  2. 好资源感谢分享teb
    2023-01-17 0
  3. 好资源感谢分享~
    JonesTOR 2023-07-12 0
  4. 真棒,谢谢
    罗蜗牛A 2023-11-23 0
1 8 9 10
Red Hot Chili Peppers - Live at Tokyo Dome 2023 [HDTV TS 16.1GB]
Red Hot Chili Peppers - Live at Tokyo Dome 2023 [HDTV TS 16.1GB]
3分钟前 有人购买 去瞅瞅看
显示验证码
没有账号?注册  忘记密码?