卫兰2014年香港红馆演唱会 Janice Walking To The Future Live 2014 BluRay 1080p DTS FLAC x264 HDS《BDrip MKV 15.9GB》

[视频信息]
视频编码: AVC1 - 内置 FFmpeg 解码器(h264, Thread Frame)
输入格式: AVC1(24 bits)
输入尺寸: 1920 × 1080(1.78:1)
输出格式: YV12(12 bits)
输出尺寸: 1920 × 1080(1.78:1)
帧率: 25
BitRate: 未知

[音频信息]
音频编码: DTS(0x2001) - FFmpegMininum64.dll(dca)
采样率: 48000 -> 48000 Hz
位率: 0 -> 16 位
声道数: 6 -> 2 声道
Bitrate: 1509 kbps

卫兰重踏红馆舞台,用歌声带你穿越时空。11月29、30日一连两场《卫兰Janice Walking To The Future Live 2014》,Janice将以其天赋的好声音带大家集体重温八、九十年代辉煌的乐坛,唱尽当年叱咤一时的经典金曲,再以乐迷最喜爱的卫兰金曲带你回到未来,以最精彩的音乐盛宴走过她经历过的年代。

完美演绎八,九十年代经典金曲及出道至今大热作品
情人 / 我愿意 / 爱如潮水
分手总要在雨天 / 大哥 / 离家出走
WONDERLAND / MY LOVE MY FATE

重温超过120分钟精彩内容

曲目:

01. INTRO
02. 谁明浪子心
03. 大哥
04. 错过你
05. 情人
06. 无心睡眠
07. 激光中 (24 HERBS 合唱)
08. WONDERLANF ( 24 HERBS合唱)
09. 我愿意
10. 离家出走
11. 如水
12. 街灯晚餐
13. 八九十
14. LONELY
15. 残酷游戏
16. 男人信什 (JW 合唱)
17. 爱不完
18. 一夜倾情
19. 分手总要在雨天
20. 我为何让你走 (JOEY TANG 合唱)
21. 爱在天地动摇时
22. 阴天假期 (郑欣宜 合唱)
23. 爱与痛的边缘
24. 爱如潮水
25. MY LOVE MY FATE
26. YOU’RE ALWAYS EVERYTHING TO ME
27. 心乱如麻
28. 就算世界无童话

General
Unique ID : 170777495968757276951461368041866211772 (0x807A8CA0FB0CDBD6A7B30567142331BC)
Complete name : I:\卫兰2014年演唱会(mkv)\Janice.Walking.To.The.Future.Live.2014.BluRay.1080p.DTS.FLAC.x264-HDS.mkv
Format : Matroska
Format version : Version 4
File size : 16.0 GiB
Duration : 2 h 13 min
Overall bit rate mode : Variable
Overall bit rate : 17.1 Mb/s
Encoded date : UTC 2015-06-30 13:39:18
Writing application : mkvmerge v7.5.0 ('Glass Culture') 64bit built on Jan 4 2015 16:48:44
Writing library : libebml v1.3.1 + libmatroska v1.4.2

Video
ID : 1
Format : AVC
Format/Info : Advanced Video Codec
Format profile : High@L4.1
Format settings : CABAC / 4 Ref Frames
Format settings, CABAC : Yes
Format settings, Reference fra : 4 frames
Codec ID : V_MPEG4/ISO/AVC
Duration : 2 h 13 min
Bit rate : 14.3 Mb/s
Width : 1 920 pixels
Height : 1 080 pixels
Display aspect ratio : 16:9
Frame rate mode : Constant
Frame rate : 25.000 FPS
Color space : YUV
Chroma subsampling : 4:2:0
Bit depth : 8 bits
Scan type : Progressive
Bits/(Pixel*Frame) : 0.275
Stream size : 13.3 GiB (83%)
Title : Janice.Walking.To.The.Future.Live.2014.BluRay.1080p.DTS.FLAC.x264-HDS
Writing library : x264 core 146 r2538 121396c
Encoding settings : cabac=1 / ref=4 / deblock=1:-3:-3 / analyse=0x3:0x133 / me=umh / subme=11 / psy=1 / psy_rd=1.02:0.04 / mixed_ref=1 / me_range=64 / chroma_me=1 / trellis=2 / 8x8dct=1 / cqm=0 / deadzone=21,11 / fast_pskip=1 / chroma_qp_offset=-5 / threads=12 / lookahead_threads=2 / sliced_threads=0 / nr=0 / decimate=0 / interlaced=0 / bluray_compat=0 / constrained_intra=0 / bframes=9 / b_pyramid=2 / b_adapt=2 / b_bias=0 / direct=3 / weightb=1 / open_gop=0 / weightp=2 / keyint=250 / keyint_min=25 / scenecut=40 / intra_refresh=0 / rc_lookahead=80 / rc=2pass / mbtree=0 / bitrate=14260 / ratetol=1.0 / qcomp=0.70 / qpmin=0 / qpmax=69 / qpstep=4 / cplxblur=20.0 / qblur=0.5 / vbv_maxrate=47000 / vbv_bufsize=60000 / nal_hrd=none / filler=0 / ip_ratio=1.40 / pb_ratio=1.30 / aq=2:0.80
Language : Chinese
Default : Yes
Forced : No

Audio #1
ID : 2
Format : DTS
Format/Info : Digital Theater Systems
Codec ID : A_DTS
Duration : 2 h 13 min
Bit rate mode : Constant
Bit rate : 1 509 kb/s
Channel(s) : 6 channels
Channel layout : C L R Ls Rs LFE
Sampling rate : 48.0 kHz
Frame rate : 93.750 FPS (512 SPF)
Bit depth : 24 bits
Compression mode : Lossy
Stream size : 1.41 GiB (9%)
Title : DTS 5.1@1509Kbps
Language : Chinese
Default : Yes
Forced : No

Audio #2
ID : 3
Format : FLAC
Format/Info : Free Lossless Audio Codec
Codec ID : A_FLAC
Duration : 2 h 13 min
Bit rate mode : Variable
Bit rate : 1 344 kb/s
Channel(s) : 2 channels
Channel layout : L R
Sampling rate : 48.0 kHz
Frame rate : 11.719 FPS (4096 SPF)
Bit depth : 24 bits
Compression mode : Lossless
Stream size : 1.26 GiB (8%)
Title : FLAC 2.0
Writing library : libFLAC 1.2.1 (UTC 2007-09-17)
Language : Chinese
Default : No
Forced : No

Menu
00:00:00.000 : zh:INTRO
00:02:18.560 : zh:谁明浪子心
00:05:03.439 : zh:大哥
00:09:02.200 : zh:错过你
00:12:47.720 : zh:情人
00:18:51.519 : zh:无心睡眠
00:20:48.920 : zh:激光中 (24 HERBS 合唱)
00:23:43.798 : zh:WONDERLANF ( 24 HERBS合唱)
00:27:56.680 : zh:我愿意
00:33:33.078 : zh:离家出走
00:37:39.000 : zh:如水
00:41:33.360 : zh:街灯晚餐
00:46:36.480 : zh:八九十
00:50:10.559 : zh:LONELY
00:58:30.000 : zh:残酷游戏
01:02:42.518 : zh:男人信什 (JW 合唱)
01:06:55.039 : zh:爱不完
01:10:43.238 : zh:一夜倾情
01:14:25.880 : zh:分手总要在雨天
01:20:16.920 : zh:我为何让你走 (JOEY TANG 合唱)
01:24:07.760 : zh:爱在天地动摇时
01:32:04.198 : zh:阴天假期 (郑欣宜 合唱)
01:37:02.439 : zh:爱与痛的边缘
01:41:39.198 : zh:爱如潮水
01:47:45.439 : zh:MY LOVE MY FATE
01:54:46.680 : zh:YOU’RE ALWAYS EVERYTHING TO ME
01:59:00.078 : zh:心乱如麻
02:03:56.720 : zh:就算世界无童话

资源下载
下载价格10 金币
VIP免费
所有资源都在百度网盘,如有链接失效、解压错误等、请联系管理微信:lgychcom
原文链接:https://www.lgych.com/56905.html,转载请注明出处。
0

评论274

请先
  1. 谢谢分享
    yuexian830 2023-09-11 0
  2. 谢谢分享1212
    gavinfeng 2023-10-26 0
  3. 好喜欢卫兰!
    朕的江山 2023-10-30 0
  4. u
    jasonchuang31 2023-10-31 0
  5. 很好的演唱会,谢谢分享
    五多觉123 2023-11-05 0
  6. 感谢分享
    coste 2023-11-08 0
  7. 222222222222222222222222222
    sing4407 2023-11-20 0
  8. 卫兰,可惜了,嗓子条件那么好。
    lone33985 2023-12-20 0
  9. 感谢分享
    garyliu 2023-12-30 0
  10. 谢谢分享
    o249305365 2024-01-01 0
  11. 好喜歡衛蘭的演唱會
    simonhocky 2024-01-09 0
  12. 谢谢分享1dy
    1周前 0
  13. 谢谢分享
    聊聊盲僧 6天前 0
1 12 13 14
郑秀文 - 生活语言 卡拉OK精选 1998 双角度 [2DVD ISO 8.58G]
郑秀文 - 生活语言 卡拉OK精选 1998 双角度 [2DVD ISO 8.58G]
8分钟前 有人购买 去瞅瞅看
本站资源均可通过签到或者评论免费获取,被一些朋友批量注册账号玩坏了;关闭自由注册,后面需要注册账号的朋友,请自助购买邀请码注册
显示验证码
没有账号?注册  忘记密码?