WANNA ONE GO X-CON E05 END 180604 Mnet (广告移除)《HDTV TS 5.03G》

人员:WANNAONE(尹智圣/河成云/黄旼炫/邕圣祐/金在奂/姜丹尼尔/朴志训/朴佑镇/裴珍映/李大辉/赖冠霖)

曲目:Burn it Up+Light - WANNAONE
Triple Position - Kangaroo
Intro+沙漏 - The Heal
永远+1 - Lean on Me
11 - No.1

General
ID : 1 (0x1)
Complete name : G:\WANNAONE\180604 Mnet WANNA ONE GO X-CON E05 END (재방) (광고 제거).ts
Format : MPEG-TS
File size : 5.04 GiB
Duration : 1 h 4 min
Overall bit rate mode : Variable
Overall bit rate : 11.3 Mb/s

Video
ID : 256 (0x100)
Menu ID : 1 (0x1)
Format : AVC
Format/Info : Advanced Video Codec
Format profile : High@L4
Format settings : CABAC / 4 Ref Frames
Format settings, CABAC : Yes
Format settings, Reference fra : 4 frames
Codec ID : 27
Duration : 1 h 4 min
Bit rate mode : Constant
Bit rate : 10 000 kb/s
Width : 1 920 pixels
Height : 1 080 pixels
Display aspect ratio : 16:9
Frame rate : 29.970 (30000/1001) FPS
Color space : YUV
Chroma subsampling : 4:2:0
Bit depth : 8 bits
Scan type : MBAFF
Scan type, store method : Interleaved fields
Scan order : Top Field First
Bits/(Pixel*Frame) : 0.161
Stream size : 4.62 GiB (92%)
Color range : Limited
Color primaries : BT.709
Transfer characteristics : BT.709
Matrix coefficients : BT.709

Audio
ID : 257 (0x101)
Menu ID : 1 (0x1)
Format : AC-3
Format/Info : Audio Coding 3
Commercial name : Dolby Digital
Codec ID : 129
Duration : 1 h 4 min
Bit rate mode : Constant
Bit rate : 384 kb/s
Channel(s) : 2 channels
Channel layout : L R
Sampling rate : 48.0 kHz
Frame rate : 31.250 FPS (1536 SPF)
Compression mode : Lossy
Stream size : 176 MiB (3%)
Language : Korean
Service kind : Complete Main

Text #1
ID : 256 (0x100)-CC1
Menu ID : 1 (0x1)
Format : EIA-608
Muxing mode : SCTE 128 / DTVCC Transport
Muxing mode, more info : Muxed in Video #1
Duration : 1 h 4 min
Bit rate mode : Constant
Stream size : 0.00 Byte (0%)
CaptionServiceName : CC1

Text #2
ID : 256 (0x100)-CC3
Menu ID : 1 (0x1)
Format : EIA-608
Muxing mode : SCTE 128 / DTVCC Transport
Muxing mode, more info : Muxed in Video #1
Duration : 1 h 4 min
Bit rate mode : Constant
Stream size : 0.00 Byte (0%)
CaptionServiceName : CC3

Menu
ID : 4096 (0x1000)
Menu ID : 1 (0x1)
Duration : 1 h 4 min
List : 256 (0x100) (AVC) / 257 (0x101) (AC-3, Korean)
Language : / Korean
Service name : noname
Service provider : 颊砰崔 @vvvv08svvvv, @nnMOONnn
Service type : digital television

资源下载此资源仅限注册用户下载,请先
所有资源都在百度网盘,如有链接失效、解压错误等、请联系管理微信:aimuvv
资源下载
下载价格免费
所有资源都在百度网盘,如有链接失效、解压错误等、请联系管理微信:aimuvv

原文链接:https://www.lgych.com/56825.html,转载请注明出处。

1

评论82

请先

  1. 感谢分享1
    hw1969 2天前 0
  2. 謝謝分享謝謝分享
    yunfei8858 1天前 0
1 3 4 5
华语蓝光合集 252部11T资源终极收藏!支持硬盘拷贝:https://www.lgych.com/cnbd/
显示验证码
没有账号? 注册  忘记密码?