维多利亚的秘密 2007 时装秀 The Victorias Secret Fashion Show 2007《HDTV TS 10.62G》

◎译  名 维多利亚的秘密2007时装秀/维多利亚的秘密时尚内衣秀2007
◎片  名 The Victoria's Secret Fashion Show
◎年  代 2007
◎产  地 美国
◎类  别 真人秀
◎语  言 英语
◎上映日期 2007-12-04(美国)
◎IMDb评分 7.7/10 from 264 users
◎IMDb链接 https://www.imdb.com/title/tt1179303/
◎豆瓣评分 8.3/10 from 1479 users
◎豆瓣链接 https://douban.com/subject/10465267/
◎片  长 41分钟
◎导  演 哈密什·汉密尔顿 Hamish Hamilton
◎主  演 亚历桑德拉·安布罗休 Alessandra Ambrosio
梅兰妮·布朗 Melanie Brown
维多利亚·贝克汉姆 Victoria Beckham
艾玛·邦顿 Emma Bunton
茵古娜·布塔内 Inguna Butane
梅兰妮·奇斯霍姆 Melanie Chisholm
伊莉斯·克劳姆贝兹 Elise Crombez
芙拉维亚·德·奥利维拉 Flavia de Oliveira
摩根·杜布莱德 Morgane Dubléd
赛丽塔·伊班克斯 Selita Ebanks
琳赛·艾林森 Lindsay Ellingson
伊莎贝莉·芳塔娜 Isabeli Fontana
Felita Franks Felita Franks
伊莎贝儿·歌勒 Izabel Goulart
洁芮·哈利维尔 Geri Halliwell
罗茜·汉丁顿-惠特莉 Rosie Huntington-Whiteley
米兰达·可儿 Miranda Kerr
海蒂·克鲁姆 Heidi Klum
米凯拉·科夏诺娃 Michaela Kocianova
卡罗莱娜·科库娃 Karolina Kurkova
诺米·勒努瓦 Noémie Lenoir
阿德瑞娜·利玛 Adriana Lima
安吉拉·琳达瓦尔 Angela Lindvall
玛丽莎·米勒 Marisa Miller
安蒂·缪伊斯 Andi Muise
欧鲁奇·昂维巴 Oluchi Onweagba
贝哈蒂·朴琳思洛 Behati Prinsloo
席尔 Seal
哈娜·索库波娃 Hana Soukupova
杰西卡·史丹 Jessica Stam
茱莉亚·斯黛娜 Julia Stegner
坎迪丝·斯瓦内普尔 Candice Swanepoel
尤金尼娅·沃洛丁娜 Eugenia Volodina
玛丽亚·弗乔薇 Marija Vujovic
艾琳·沃森 Erin Wasson
威廉姆·亚当斯 Will i Am
卡罗琳·温伯格 Caroline Winberg
玛丽娜·琳查 Maryna Linchuk

◎简  介

暂无相关剧情介绍



General
ID : 1 (0x1)
Complete name : I:\维多利亚的秘密2007时装秀.The.Victorias.Secret.Fashion.Show.2007.1080i.HDTV.MPEG2.DTS-HeiGuo.ts
Format : MPEG-TS
File size : 10.9 GiB
Duration : 42 min 31 s
Overall bit rate mode : Variable
Overall bit rate : 36.8 Mb/s

Video
ID : 17 (0x11)
Menu ID : 1 (0x1)
Format : MPEG Video
Format version : Version 2
Format profile : Main@High
Format settings, BVOP : No
Format settings, Matrix : Default
Format settings, GOP : N=12
Format settings, picture struc : Frame
Codec ID : 2
Duration : 42 min 30 s
Bit rate mode : Variable
Bit rate : 34.6 Mb/s
Maximum bit rate : 44.5 Mb/s
Width : 1 920 pixels
Height : 1 080 pixels
Display aspect ratio : 16:9
Frame rate : 29.970 (30000/1001) FPS
Color space : YUV
Chroma subsampling : 4:2:0
Bit depth : 8 bits
Scan type : Interlaced
Scan order : Top Field First
Compression mode : Lossy
Bits/(Pixel*Frame) : 0.556
Time code of first frame : 00:00:00;00
Time code source : Group of pictures header
GOP, Open/Closed : Closed
Stream size : 10.3 GiB (94%)

Audio
ID : 20 (0x14)
Menu ID : 1 (0x1)
Format : AC-3
Format/Info : Audio Coding 3
Commercial name : Dolby Digital
Codec ID : 129
Duration : 42 min 30 s
Bit rate mode : Constant
Bit rate : 384 kb/s
Channel(s) : 2 channels
Channel layout : L R
Sampling rate : 48.0 kHz
Frame rate : 31.250 FPS (1536 SPF)
Compression mode : Lossy
Stream size : 117 MiB (1%)
Service kind : Complete Main

Text #1
ID : 17 (0x11)-CC1
Menu ID : 1 (0x1)
Format : EIA-608
Muxing mode : A/53 / DTVCC Transport
Muxing mode, more info : Muxed in Video #1
Duration : 42 min 30 s
Duration of the visible conten : 42 min 29 s
Start time (commands) : 593 ms
Start time : 660 ms
End time : 42 min 29 s
Bit rate mode : Constant
Stream size : 0.00 Byte (0%)
Count of frames before first e : 15
Type of the first event : PopOn

Text #2
ID : 17 (0x11)-1
Menu ID : 1 (0x1)
Format : EIA-708
Muxing mode : A/53 / DTVCC Transport
Muxing mode, more info : Muxed in Video #1
Duration : 42 min 30 s
Bit rate mode : Constant
Stream size : 0.00 Byte (0%)

资源下载
下载价格10 金币
VIP免费
所有资源都在百度网盘,如有链接失效、解压错误等、请联系管理微信:lgychcom
原文链接:https://www.lgych.com/60686.html,转载请注明出处。
0

评论15

请先
  1. 很好。
    3344 2023-01-29 0
  2. 多谢分享
    随缘yx806 2023-01-30 0
  3. 多谢
    冰墩墩儿 2023-01-31 0
  4. 666
    kxc2878 2023-02-13 0
  5. 好漂亮,感謝分享
    小小瑋 2023-06-12 0
  6. 谢谢分享!
    qingchun 2023-06-28 0
  7. 感谢分享!
    dongtian 2023-06-28 0
  8. 感谢楼主分享!
    chuntian 2023-06-28 0
  9. 不错的资源!
    浅墨001 2023-06-28 0
  10. 漂亮,感谢分享~
    JonesTOR 2023-06-29 0
  11. 感谢分享
    38712298 2023-07-09 0
  12. 谢谢楼主分享
    yttx2014 2023-08-09 0
  13. 谢谢分享
    luoqi520 2024-02-14 0
  14. 感谢分享
    wangjunxi2017 2024-03-13 0
  15. 感谢分享
    mbvcjq 3周前 0
显示验证码
没有账号?注册  忘记密码?