Kinki Kids 2021 正月演唱会 [WEB-DL MP4 7.66GB]

General
Complete name : I:\2021 Kinki Kids 正月.mp4
Format : MPEG-4
Format profile : Base Media / Version 2
Codec ID : mp42 (mp42/isom/avc1)
File size : 7.67 GiB
Duration : 1 h 56 min
Overall bit rate mode : Variable
Overall bit rate : 9 451 kb/s
Encoded date : UTC 2022-12-14 09:23:08
Tagged date : UTC 2022-12-14 10:30:14
Writing application : DVDFab 12.0.1.7
Cover : Yes

Video
ID : 1
Format : AVC
Format/Info : Advanced Video Codec
Format profile : Main@L4
Format settings : CABAC / 1 Ref Frames
Format settings, CABAC : Yes
Format settings, Reference fra : 1 frame
Format settings, GOP : M=1, N=24
Codec ID : avc1
Codec ID/Info : Advanced Video Coding
Duration : 1 h 56 min
Bit rate mode : Constant
Bit rate : 9 129 kb/s
Width : 1 920 pixels
Height : 1 080 pixels
Display aspect ratio : 16:9
Frame rate mode : Constant
Frame rate : 23.976 (24000/1001) FPS
Color space : YUV
Chroma subsampling : 4:2:0
Bit depth : 8 bits
Scan type : Progressive
Bits/(Pixel*Frame) : 0.184
Stream size : 7.40 GiB (97%)
Encoded date : UTC 2022-12-14 09:23:08
Tagged date : UTC 2022-12-14 10:30:14
Color range : Limited
Color primaries : BT.709
Transfer characteristics : BT.709
Matrix coefficients : BT.709
Menus : 3
Codec configuration box : avcC

Audio
ID : 2
Format : AAC LC
Format/Info : Advanced Audio Codec Low Complexity
Codec ID : mp4a-40-2
Duration : 1 h 56 min
Bit rate mode : Variable
Bit rate : 319 kb/s
Channel(s) : 2 channels
Channel layout : L R
Sampling rate : 48.0 kHz
Frame rate : 46.875 FPS (1024 SPF)
Compression mode : Lossy
Stream size : 266 MiB (3%)
Title : Japanese (aac 2.0)
Language : Japanese
Default : Yes
Alternate group : 1
Encoded date : UTC 2022-12-14 09:23:08
Tagged date : UTC 2022-12-14 10:30:14

Menu
ID : 3
Format : Timed Text
Codec ID : text
Duration : 1 h 56 min
Encoded date : UTC 2022-12-14 09:23:08
Tagged date : UTC 2022-12-14 10:30:14
Menu For : 1
00:00:00.000 : Chapter 1
00:04:26.265 : Chapter 2
00:07:14.016 : Chapter 3
00:10:13.863 : Chapter 4
00:13:44.240 : Chapter 5
00:16:49.925 : Chapter 6
00:20:17.633 : Chapter 7
00:30:36.334 : Chapter 8
00:33:17.286 : Chapter 9
00:36:07.623 : Chapter 10
00:40:53.117 : Chapter 11
00:44:09.062 : Chapter 12
00:48:26.236 : Chapter 13
00:50:17.264 : Chapter 14
00:54:07.702 : Chapter 15
00:56:46.903 : Chapter 16
01:00:35.464 : Chapter 17
01:04:17.853 : Chapter 18
01:07:58.824 : Chapter 19
01:13:00.334 : Chapter 20
01:18:29.746 : Chapter 21
01:21:29.926 : Chapter 22
01:24:26.102 : Chapter 23
01:29:14.473 : Chapter 24
01:33:24.390 : Chapter 25
01:38:02.960 : Chapter 26
01:41:55.734 : Chapter 27
01:46:45.774 : Chapter 28
01:49:36.027 : Chapter 29

资源下载
下载价格10 金币
VIP免费
所有资源都在百度网盘,如有链接失效、解压错误等、请联系管理微信:lgychcom
原文链接:https://www.lgych.com/62724.html,转载请注明出处。
0

评论11

请先
  1. 谢谢分享!
    chuntian 2023-06-08 0
  2. 竟然在这里找到kinki kids演唱会,太好了!谢谢分享
    caryling513 2023-07-03 0
  3. 谢谢楼主分享。
    yttx2014 2023-07-23 0
  4. 愿网站日久天长
    lidong1982 2023-08-02 0
  5. 谢谢分享!KK forever
    熊君 2023-08-06 0
  6. 感謝分享!
    siub722 2023-11-19 0
  7. 謝謝分享
    siub722 2023-11-24 0
  8. 多謝樓主分享
    siub722 2023-11-29 0
  9. 謝謝樓主分享。
    siub722 2024-01-05 0
  10. 謝謝樓主分享
    siub722 2024-01-05 0
  11. 感謝分享,資源很好
    siub722 2024-01-06 0
任贤齐 - 在路上 2023 新专辑 [24bit/48kHz] [Hi-Res Flac 458MB]
任贤齐 - 在路上 2023 新专辑 [24bit/48kHz] [Hi-Res Flac 458MB]
10分钟前 有人购买 去瞅瞅看
显示验证码
没有账号?注册  忘记密码?