EXO - BIRD 2019 [BDMV 40.7GB]

Disc Label: EXO - Bird 2019 AVC1_79630B
Disc Size: 43,761,009,332 bytes
Protection: AACS
Playlist: 00001.MPLS
Size: 43,183,534,080 bytes
Length: 2:27:47.058
Total Bitrate: 38.96 Mbps
Video: MPEG-4 AVC Video / 34907 kbps / 1080i / 29.970 fps / 16:9 / High Profile 4.1
Audio: Japanese / LPCM Audio / 2.0 / 48 kHz / 2304 kbps / 24-bit

EXO、約2年ぶりとなる待望の日本オリジナル新曲「BIRD」が、ライブ会場&mu-moショップ限定盤として2019年11月4日リリース決定!!

新曲「BIRD」は、この先の未来へ向けたEXOからのメッセージや、ファンの皆さんへの想いが込められており、クリアなサウンドが心地良いミディアムナンバー。
DVD・Blu-rayには、昨年開催されたファンクラブイベント『EXO-L-JAPAN presents EXO CHANNEL“ADVENTURE”』の模様と、熱い夏に出演して盛り上げた『a-nation 2018』のパフォーマンスを収録。EXOの全力でゲームを楽しむ姿が見られるファンクラブイベントとステージパフォーマンスのギャップを、是非お楽しみに!

11月4日に日本デビュー5年目を迎えるEXOとファンの皆さんにとってメモリアルな作品となる「BIRD」、是非チェックしてください♪

<ライブ会場・mu-moショップ・EXO-L-JAPAN オフィシャルショップ限定盤>
※全国CDショップ・各ECサイトでの取扱はございません
※CD+DVDとCD+Blu-rayのジャケットは共通となります

・ FAN CLUB EVENT 2018 「EXO-L-JAPAN presents EXO CHANNEL“ADVENTURE”」
・ 『a-nation 2018 supported by dTV & dTVチャンネル』Live Clip

DISC INFO:

Disc Label: EXO - Bird 2019 AVC1_79630B
Disc Size: 43,761,009,332 bytes
Protection: AACS
BDInfo: 0.7.5.6

PLAYLIST REPORT:

Name: 00001.MPLS
Length: 2:27:47.058 (h:m:s.ms)
Size: 43,183,534,080 bytes
Total Bitrate: 38.96 Mbps

VIDEO:

Codec Bitrate Description
----- ------- -----------
MPEG-4 AVC Video 34907 kbps 1080i / 29.970 fps / 16:9 / High Profile 4.1

AUDIO:

Codec Language Bitrate Description
----- -------- ------- -----------
LPCM Audio Japanese 2304 kbps 2.0 / 48 kHz / 2304 kbps / 24-bit

FILES:

Name Time In Length Size Total Bitrate
---- ------- ------ ---- -------------
00001.M2TS 0:00:00.000 0:36:38.196 10,727,387,136 39,041
00002.M2TS 0:36:38.196 0:33:32.010 9,769,353,216 38,844
00003.M2TS 1:10:10.206 0:09:58.598 2,918,393,856 39,003
00004.M2TS 1:20:08.804 0:11:07.666 3,253,960,704 38,989
00005.M2TS 1:31:16.470 0:13:13.792 3,874,455,552 39,048
00006.M2TS 1:44:30.263 0:14:01.840 4,109,850,624 39,056
00007.M2TS 1:58:32.105 0:29:14.953 8,530,132,992 38,885

资源下载
下载价格30 金币
终身VIP免费
所有资源都在百度网盘,如有链接失效、解压错误等、请联系管理微信:lgychcom
原文链接:https://www.lgych.com/63796.html,转载请注明出处。
0

评论106

请先
  1. 感谢楼主分享
    haolanxin007 2周前 0
  2. 感谢楼主分享
    andy063 2周前 0
  3. 谢谢分享
    sonicw 7天前 0
  4. 感谢分享
    80901961 6天前 0
  5. 谢谢分享
    haolanxin007 2天前 0
  6. 感谢分享
    lone33985 1天前 0
1 4 5 6
显示验证码
没有账号?注册  忘记密码?