TAEYEON - INVU 4K 2160P [Bugs MP4 2.4GB]

General
Complete name : I:\TAEYEON - INVU - 4K - Bugs.mp4
Format : MPEG-4
Format profile : Base Media / Version 2
Codec ID : mp42 (mp42/mp41)
File size : 2.40 GiB
Duration : 3 min 37 s
Overall bit rate mode : Variable
Overall bit rate : 95.0 Mb/s
Frame rate : 23.976 FPS
Encoded date : 2022-02-14 04:10:08 UTC
Tagged date : 2022-02-14 04:19:18 UTC
TIM : 00:00:00:00
TSC : 24000
TSZ : 1001

Video
ID : 1
Format : AVC
Format/Info : Advanced Video Codec
Format profile : Main@L5.1
Format settings : CABAC / 2 Ref Frames
Format settings, CABAC : Yes
Format settings, Reference fra : 2 frames
Format settings, GOP : M=2, N=47
Codec ID : avc1
Codec ID/Info : Advanced Video Coding
Duration : 3 min 37 s
Bit rate mode : Variable
Bit rate : 93.3 Mb/s
Maximum bit rate : 768 kb/s
Width : 3 840 pixels
Height : 2 160 pixels
Display aspect ratio : 16:9
Frame rate mode : Constant
Frame rate : 23.976 (24000/1001) FPS
Color space : YUV
Chroma subsampling : 4:2:0
Bit depth : 8 bits
Scan type : Progressive
Bits/(Pixel*Frame) : 0.469
Stream size : 2.36 GiB (98%)
Language : English
Encoded date : 2022-02-14 04:10:08 UTC
Tagged date : 2022-02-14 04:10:08 UTC
Color range : Limited
Color primaries : BT.709
Transfer characteristics : BT.709
Matrix coefficients : BT.709
Codec configuration box : avcC

Audio
ID : 2
Format : AAC LC
Format/Info : Advanced Audio Codec Low Complexity
Codec ID : mp4a-40-2
Duration : 3 min 37 s
Source duration : 3 min 37 s
Bit rate mode : Variable
Bit rate : 317 kb/s
Maximum bit rate : 504 kb/s
Channel(s) : 2 channels
Channel layout : L R
Sampling rate : 48.0 kHz
Frame rate : 46.875 FPS (1024 SPF)
Compression mode : Lossy
Stream size : 8.22 MiB (0%)
Source stream size : 8.22 MiB (0%)
Language : English
Encoded date : 2022-02-14 04:10:11 UTC
Tagged date : 2022-02-14 04:10:11 UTC

资源下载
下载价格5 金币
包年VIP免费
所有资源都在百度网盘,如有链接失效、解压错误等、请联系管理微信:lgychcom
原文链接:https://www.lgych.com/67975.html,转载请注明出处。
0

评论31

请先
  1. 感谢分享
    hal.jordan 2023-12-28 0
  2. 谢谢分享
    时光悠悠 2024-01-15 0
  3. 画质很棒,感谢
    秋夜芦荻 2024-01-19 0
  4. 谢谢分享好资源
    时光悠悠 2024-01-22 0
  5. 谢谢分享好资源
    270024313 2024-03-15 0
  6. 感谢楼主的分享,辛苦了!!
    醒着做梦LP 2024-03-20 0
  7. 感谢分享
    uegmuovbuwlryff 2024-05-02 0
  8. 谢谢分享,资源经典
    太子关-JC 2024-06-10 0
  9. 感谢分享!
    vv520 4周前 0
  10. 谢谢分享好资源
    shanmi已购买 4周前 0
  11. 感谢你的无私分享。感谢你的无私分享。
    shanmi已购买 1周前 0
1 2
显示验证码
没有账号?注册  忘记密码?