YENA (崔叡娜) -Hate Rodrigo (Feat. 宋雨琦) 4K 2160P [Bugs MP4 1.6GB]

General
Complete name : I:\YENA (崔叡娜) -Hate Rodrigo (Feat. 宋雨琦) 2160p.mp4
Format : MPEG-4
Format profile : Base Media / Version 2
Codec ID : mp42 (mp42/mp41)
File size : 1.60 GiB
Duration : 3 min 47 s
Overall bit rate mode : Variable
Overall bit rate : 60.2 Mb/s
Frame rate : 24.000 FPS
Encoded date : 2023-06-27 07:39:22 UTC
Tagged date : 2023-06-27 07:40:23 UTC
TIM : 00:00:00:00
TSC : 24
TSZ : 1

Video
ID : 1
Format : AVC
Format/Info : Advanced Video Codec
Format profile : Main@L5.1
Format settings : CABAC / 2 Ref Frames
Format settings, CABAC : Yes
Format settings, Reference fra : 2 frames
Codec ID : avc1
Codec ID/Info : Advanced Video Coding
Duration : 3 min 47 s
Bit rate : 59.8 Mb/s
Width : 3 840 pixels
Height : 2 160 pixels
Display aspect ratio : 16:9
Frame rate mode : Constant
Frame rate : 24.000 FPS
Color space : YUV
Chroma subsampling : 4:2:0
Bit depth : 8 bits
Scan type : Progressive
Bits/(Pixel*Frame) : 0.301
Stream size : 1.59 GiB (99%)
Language : English
Encoded date : 2023-06-27 07:39:22 UTC
Tagged date : 2023-06-27 07:39:22 UTC
Color range : Limited
Color primaries : BT.709
Transfer characteristics : BT.709
Matrix coefficients : BT.709
Codec configuration box : avcC

Audio
ID : 2
Format : AAC LC
Format/Info : Advanced Audio Codec Low Complexity
Codec ID : mp4a-40-2
Duration : 3 min 47 s
Source duration : 3 min 47 s
Bit rate mode : Variable
Bit rate : 317 kb/s
Maximum bit rate : 525 kb/s
Channel(s) : 2 channels
Channel layout : L R
Sampling rate : 48.0 kHz
Frame rate : 46.875 FPS (1024 SPF)
Compression mode : Lossy
Stream size : 8.62 MiB (0%)
Source stream size : 8.62 MiB (0%)
Language : English
Encoded date : 2023-06-27 07:39:23 UTC
Tagged date : 2023-06-27 07:39:23 UTC

资源下载
下载价格5 金币
包年VIP免费
所有资源都在百度网盘,如有链接失效、解压错误等、请联系管理微信:lgychcom
原文链接:https://www.lgych.com/69071.html,转载请注明出处。
0

评论15

请先
  1. 谢谢分享
    HY0768 2023-10-10 0
  2. 谢谢分享
    丁丁糖糖 2023-10-10 0
  3. 谢谢分享!谢谢分享
    King龙灬 2023-10-10 0
  4. 谢谢分享 感谢感谢
    languang11 2023-10-10 0
  5. 谢谢分享精彩的资源
    随便玩玩 2023-10-10 0
  6. 谢谢分享
    LITTLEMAIDI 2023-10-10 0
  7. 谢谢分享
    @夜猫@ 2023-10-12 0
  8. 谢谢分享的我
    神马观花 2023-10-16 0
  9. 66666
    kg666666 2023-11-04 0
  10. 谢谢分享
    qingchun 2023-12-10 0
  11. 感谢分享
    chuntian 2023-12-10 0
  12. 谢谢分享!
    dongtian 2023-12-10 0
  13. 感谢分享!
    浅墨001 2023-12-10 0
  14. 感谢分享优质资源!
    keper85已购买 2024-01-21 0
  15. 谢谢分享!
    shjj789 2周前 0
凤凰传奇 - 新年交响演唱会 [DVD ISO 4.02G]
凤凰传奇 - 新年交响演唱会 [DVD ISO 4.02G]
6分钟前 有人购买 去瞅瞅看
显示验证码
没有账号?注册  忘记密码?