NewJeans & J.I.D - Zero (Remix) 4K 2160P [Bugs MP4 1.49GB]

General
Complete name : I:\NewJeans & J.I.D - Zero 【 Remix)】2160p.mp4
Format : MPEG-4
Format profile : Base Media / Version 2
Codec ID : mp42 (mp42/mp41)
File size : 1.49 GiB
Duration : 3 min 54 s
Overall bit rate mode : Variable
Overall bit rate : 54.6 Mb/s
Frame rate : 23.976 FPS
Encoded date : 2023-06-19 14:07:10 UTC
Tagged date : 2023-06-19 14:07:36 UTC
TIM : 00:00:22:09
TSC : 24000
TSZ : 1001

Video
ID : 1
Format : AVC
Format/Info : Advanced Video Codec
Format profile : Main@L5.1
Format settings : CABAC / 4 Ref Frames
Format settings, CABAC : Yes
Format settings, Reference fra : 4 frames
Codec ID : avc1
Codec ID/Info : Advanced Video Coding
Duration : 3 min 54 s
Bit rate : 54.3 Mb/s
Width : 3 840 pixels
Height : 2 160 pixels
Display aspect ratio : 16:9
Frame rate mode : Constant
Frame rate : 23.976 (24000/1001) FPS
Color space : YUV
Chroma subsampling : 4:2:0
Bit depth : 8 bits
Scan type : Progressive
Bits/(Pixel*Frame) : 0.273
Stream size : 1.48 GiB (99%)
Language : English
Encoded date : 2023-06-19 14:07:10 UTC
Tagged date : 2023-06-19 14:07:10 UTC
Color range : Limited
Color primaries : BT.709
Transfer characteristics : BT.709
Matrix coefficients : BT.709
Codec configuration box : avcC

Audio
ID : 2
Format : AAC LC
Format/Info : Advanced Audio Codec Low Complexity
Codec ID : mp4a-40-2
Duration : 3 min 54 s
Source duration : 3 min 54 s
Bit rate mode : Variable
Bit rate : 317 kb/s
Maximum bit rate : 426 kb/s
Channel(s) : 2 channels
Channel layout : L R
Sampling rate : 48.0 kHz
Frame rate : 46.875 FPS (1024 SPF)
Compression mode : Lossy
Stream size : 8.87 MiB (0%)
Source stream size : 8.87 MiB (0%)
Language : English
Encoded date : 2023-06-19 14:07:10 UTC
Tagged date : 2023-06-19 14:07:10 UTC

资源下载
下载价格5 金币
包年VIP免费
所有资源都在百度网盘,如有链接失效、解压错误等、请联系管理微信:lgychcom
原文链接:https://www.lgych.com/69069.html,转载请注明出处。
0

评论11

请先
  1. 感謝分享
    小小瑋 2023-10-09 0
  2. 感謝分享
    @夜猫@ 2023-10-09 0
  3. 感谢楼主分享感谢楼主分享
    孔明上将 2023-10-09 0
  4. 美女也好
    cai88826 2023-10-09 0
  5. 谢谢分享
    HY0768 2023-10-10 0
  6. 美女mv 谢谢分享
    languang11 2023-10-10 0
  7. 谢谢分享
    qingchun 2023-12-10 0
  8. 感谢分享
    chuntian 2023-12-10 0
  9. 谢谢分享!
    dongtian 2023-12-10 0
  10. 感谢分享!
    浅墨001 2023-12-10 0
  11. 谢谢分享
    guoguo 4周前 0
Ayasa 绚沙 - LIVE!! Ayasa Theater episode 7 at 白金高輪 2017《BDMV 15.6G》
Ayasa 绚沙 - LIVE!! Ayasa Theater episode 7 at 白金高輪 2017《BDMV 15.6G》
1分钟前 有人购买 去瞅瞅看
显示验证码
没有账号?注册  忘记密码?