YEEUN - Strange Way To Love 1080P [Bugs MP4 438.8GB]

General
Complete name : I:\YEEUN - Strange Way To Love【1080p】.mp4
Format : MPEG-4
Format profile : Base Media / Version 2
Codec ID : mp42 (isom/mp41/mp42)
File size : 439 MiB
Duration : 3 min 2 s
Overall bit rate : 20.2 Mb/s
Frame rate : 23.976 FPS
Movie name : Onair HD
Movie_More : This video is about Onair HD
Performer : Master1
Keywords : DI,2023-03-10
Encoded date : 2023-03-17 09:13:07 UTC
Tagged date : 2023-03-17 09:13:45 UTC
Cover type : Thumbnail

Video
ID : 2
Format : AVC
Format/Info : Advanced Video Codec
Format profile : High@L4
Format settings : CABAC / 1 Ref Frames
Format settings, CABAC : Yes
Format settings, Reference fra : 1 frame
Codec ID : avc1
Codec ID/Info : Advanced Video Coding
Duration : 3 min 2 s
Bit rate : 20.0 Mb/s
Width : 1 920 pixels
Height : 1 080 pixels
Display aspect ratio : 16:9
Frame rate mode : Constant
Frame rate : 23.976 (24000/1001) FPS
Color space : YUV
Chroma subsampling : 4:2:0
Bit depth : 8 bits
Scan type : Progressive
Bits/(Pixel*Frame) : 0.403
Stream size : 435 MiB (99%)
Title : Core Media Video
Encoded date : 2023-03-17 09:13:08 UTC
Tagged date : 2023-03-17 09:13:45 UTC
Color range : Limited
Color primaries : BT.709
Transfer characteristics : BT.709
Matrix coefficients : BT.709
Codec configuration box : avcC

Audio
ID : 1
Format : AAC LC
Format/Info : Advanced Audio Codec Low Complexity
Codec ID : mp4a-40-2
Duration : 3 min 2 s
Source duration : 3 min 2 s
Bit rate mode : Constant
Bit rate : 128 kb/s
Channel(s) : 2 channels
Channel layout : L R
Sampling rate : 48.0 kHz
Frame rate : 46.875 FPS (1024 SPF)
Compression mode : Lossy
Stream size : 2.79 MiB (1%)
Source stream size : 2.79 MiB (1%)
Title : Core Media Audio
Language : English
Encoded date : 2023-03-17 09:13:07 UTC
Tagged date : 2023-03-17 09:13:45 UTC

Image
Format : JPEG
Width : 1 920 pixels
Height : 1 080 pixels
Color space : YUV
Chroma subsampling : 4:2:0
Bit depth : 8 bits
Compression mode : Lossy
Stream size : 484 KiB (0%)

资源下载
下载价格5 金币
包年VIP免费
所有资源都在百度网盘,如有链接失效、解压错误等、请联系管理微信:lgychcom
原文链接:https://www.lgych.com/69388.html,转载请注明出处。
0

评论4

请先
  1. 谢谢分享
    qingchun 2024-01-06 0
  2. 感谢分享
    chuntian 2024-01-06 0
  3. 谢谢分享!
    dongtian 2024-01-06 0
  4. 感谢分享!
    浅墨001 2024-01-06 0
阿黛尔 - 此夜唯一 演唱会 Adele One Night Only 2021 [饭制版] [BDISO 21.8GB]
阿黛尔 - 此夜唯一 演唱会 Adele One Night Only 2021 [饭制版] [BDISO 21.8GB]
9分钟前 有人购买 去瞅瞅看
显示验证码
没有账号?注册  忘记密码?