eite - INDEPENDENT WOMAN 1080P [Bugs MP4 637MB]

General
Complete name : I:\tougao\eite - INDEPENDENT WOMAN【Bugs 1080p】.mp4
Format : MPEG-4
Format profile : Base Media / Version 2
Codec ID : mp42 (mp42/mp41)
File size : 637 MiB
Duration : 3 min 23 s
Overall bit rate mode : Variable
Overall bit rate : 26.2 Mb/s
Frame rate : 23.976 FPS
Encoded date : 2023-10-26 09:20:08 UTC
Tagged date : 2023-10-26 09:20:29 UTC
TIM : 01:00:01:12
TSC : 24000
TSZ : 1001

Video
ID : 1
Format : AVC
Format/Info : Advanced Video Codec
Format profile : Main@L4.1
Format settings : CABAC / 3 Ref Frames
Format settings, CABAC : Yes
Format settings, Reference fra : 3 frames
Format settings, GOP : M=1, N=30
Codec ID : avc1
Codec ID/Info : Advanced Video Coding
Duration : 3 min 23 s
Bit rate : 25.9 Mb/s
Width : 1 920 pixels
Height : 1 080 pixels
Display aspect ratio : 16:9
Frame rate mode : Constant
Frame rate : 23.976 (24000/1001) FPS
Color space : YUV
Chroma subsampling : 4:2:0
Bit depth : 8 bits
Scan type : Progressive
Bits/(Pixel*Frame) : 0.521
Stream size : 630 MiB (99%)
Language : English
Encoded date : 2023-10-26 09:20:08 UTC
Tagged date : 2023-10-26 09:20:08 UTC
Codec configuration box : avcC

Audio
ID : 2
Format : AAC LC
Format/Info : Advanced Audio Codec Low Complexity
Codec ID : mp4a-40-2
Duration : 3 min 23 s
Source duration : 3 min 23 s
Bit rate mode : Variable
Bit rate : 317 kb/s
Maximum bit rate : 503 kb/s
Channel(s) : 2 channels
Channel layout : L R
Sampling rate : 48.0 kHz
Frame rate : 46.875 FPS (1024 SPF)
Compression mode : Lossy
Stream size : 7.72 MiB (1%)
Source stream size : 7.72 MiB (1%)
Language : English
Encoded date : 2023-10-26 09:20:08 UTC
Tagged date : 2023-10-26 09:20:08 UTC

资源下载
下载价格5 金币
包年VIP免费
所有资源都在百度网盘,如有链接失效、解压错误等、请联系管理微信:lgychcom
原文链接:https://www.lgych.com/75003.html,转载请注明出处。
0

评论36

请先
  1. 感谢楼主无私奉献
    佳艺鞍山 2023-12-14 0
  2. 感谢感谢
    kaxx 2023-12-14 0
  3. 感谢感谢
    a1978 2023-12-14 0
  4. 感谢楼主无私奉献
    luohang0508 2023-12-15 0
  5. 谢谢分享🙏谢谢
    sonysega59 2023-12-15 0
  6. 谢谢分享
    liumin730222 2023-12-20 0
  7. 楼主辛苦了 非常感谢
    liumin730222 2023-12-20 0
  8. 谢谢分享
    丁丁糖糖 2023-12-20 0
  9. 感謝感謝
    7575yang 2023-12-24 0
  10. 謝謝分享
    FITYU_ 2024-01-02 0
  11. 谢谢分享~~!
    TofuWang 2024-01-04 0
  12. 謝謝分享ttyhryhtyhryt
    tingwong 2024-01-08 0
  13. 感谢仙道
    秋夜芦荻 2024-01-17 0
  14. 感谢分享
    654090 2024-01-18 0
  15. 感谢分享
    luoqi523 4周前 0
  16. 谢谢分享
    Future2024 2周前 0
1 2
雅尼 雅典卫城音乐会25周年纪念专辑BD盘 Yanni - Live At The Acropolis 1994 [BDMV 36.9GB]
雅尼 雅典卫城音乐会25周年纪念专辑BD盘 Yanni - Live At The Acropolis 1994 [BDMV 36.9GB]
9分钟前 有人购买 去瞅瞅看
显示验证码
没有账号?注册  忘记密码?