林俊杰&阿杜 - 曹操 现场版LIVE [WEB-DL MP4 80.54MB]

General
Complete name : I:\duanzaoshi\YouTube\Video\林俊傑 JJ Lin # 阿杜 A-Do -《曹操》 Cao Cao - JJ20 現場版 Live in Nanning.mp4
Format : MPEG-4
Format profile : Base Media
Codec ID : isom (isom/iso2/avc1/mp41)
File size : 80.5 MiB
Duration : 3 min 7 s
Overall bit rate : 3 597 kb/s
Frame rate : 25.000 FPS
Movie name : 林俊傑 JJ Lin / 阿杜 A-Do -《曹操》 Cao Cao - JJ20 現場版 Live in Nanning
Performer : JJ Lin林俊傑
Description : JJ20歡迎好久不見的 師兄 阿杜!一起合唱《曹操》 / 20年,我們都長大了! / 願在天上的林秋離老師喜歡! / / The JJ20 stage welcomes A-Do with a special “Cao Cao” feature! It’s been awhile, Look how we’ve grown! / Dedicated to our beloved mentor Eric Lin. / / 《曹操》 Cao Cao / 詞 - 林秋離 / 曲 - JJ 林俊傑 / 原編曲 - Kenn C / Live 編曲 - Troy Laureta / / Lyrics: Eric Lin / Composer: JJ Lin / Original Arrangement: Kenn C / Live Arrangement: Troy Laureta / / #roadtoJJ20 #JJ20WorldTour #JJ曹操 #CaoCao / / _ / / ■ 更多林俊傑相關資訊: / 林俊傑官方 Facebook:https://www.facebook.com/JJLin / 林俊傑官方 Instagram:https://www.instagram.com/jjlin / 林俊傑新浪微博:http://www.weibo.com/jjlin / 林俊傑Twitter:https://twitter.com/JJ_Lin / 林俊傑 TikTok: https://www.tiktok.com/@drifterjjlin / JFJ Productions官方Facebook:https://www.facebook.com/jforj / JFJ Productions 官方 Instagram:https://www.instagram.com/jfj_production / JFJ Productions新浪微博:https://www.weibo.com/jfjproductions / JFJ Productions TikTok: https://www.tiktok.com/@jfjproductions
Recorded date : 20231217
Writing application : Lavf60.3.100
Cover : Yes
Comment : https://www.youtube.com/watch?v=lGFQpBmpe00
LongDescription : JJ20歡迎好久不見的 師兄 阿杜!一起合唱《曹操》 / 20年,我們都長大了! / 願在天上的林秋離老師喜歡! / / The JJ20 stage welcomes A-Do with a special “Cao Cao” feature! It’s been awhile, Look how we’ve grown! / Dedicated to our beloved mentor Eric Lin. / / 《曹操》 Cao Cao / 詞 - 林秋離 / 曲 - JJ 林俊傑 / 原編曲 - Kenn C / Live 編曲 - Troy Laureta / / Lyrics: Eric Lin / Composer: JJ Lin / Original Arrangement: Kenn C / Live Arrangement: Troy Laureta / / #roadtoJJ20 #JJ20WorldTour #JJ曹操 #CaoCao / / _ / / ■ 更多林俊傑相關資訊: / 林俊傑官方 Facebook:https://www.facebook.com/JJLin / 林俊傑官方 Instagram:https://www.instagram.com/jjlin / 林俊傑新浪微博:http://www.weibo.com/jjlin / 林俊傑Twitter:https://twitter.com/JJ_Lin / 林俊傑 TikTok: https://www.tiktok.com/@drifterjjlin / JFJ Productions官方Facebook:https://www.facebook.com/jforj / JFJ Productions 官方 Instagram:https://www.instagram.com/jfj_production / JFJ Productions新浪微博:https://www.weibo.com/jfjproductions / JFJ Productions TikTok: https://www.tiktok.com/@jfjproductions

Video
ID : 1
Format : AVC
Format/Info : Advanced Video Codec
Format profile : High@L4
Format settings : CABAC / 3 Ref Frames
Format settings, CABAC : Yes
Format settings, Reference fra : 3 frames
Codec ID : avc1
Codec ID/Info : Advanced Video Coding
Duration : 3 min 7 s
Bit rate : 3 425 kb/s
Width : 1 920 pixels
Height : 1 080 pixels
Display aspect ratio : 16:9
Frame rate mode : Constant
Frame rate : 25.000 FPS
Color space : YUV
Chroma subsampling : 4:2:0
Bit depth : 8 bits
Scan type : Progressive
Bits/(Pixel*Frame) : 0.066
Stream size : 76.7 MiB (95%)
Writing library : x264 core 155 r2901 7d0ff22
Color range : Limited
Color primaries : BT.709
Transfer characteristics : BT.709
Matrix coefficients : BT.709
Codec configuration box : avcC

Audio
ID : 2
Format : AAC LC
Format/Info : Advanced Audio Codec Low Complexity
Codec ID : mp4a-40-2
Duration : 3 min 7 s
Bit rate mode : Constant
Bit rate : 128 kb/s
Channel(s) : 2 channels
Channel layout : L R
Sampling rate : 44.1 kHz
Frame rate : 43.066 FPS (1024 SPF)
Compression mode : Lossy
Stream size : 2.87 MiB (4%)
Title : ISO Media file produced by Google Inc.
Default : Yes
Alternate group : 1

资源下载
下载价格免费
所有资源都在百度网盘,如有链接失效、解压错误等、请联系管理微信:lgychcom
原文链接:https://www.lgych.com/75893.html,转载请注明出处。
5

评论443

请先
  1. 感谢分享感谢分享
    happysky888999 2周前 0
  2. 感谢分享!
    nan669980 2周前 0
  3. 感谢分享感谢分享
    明月123 2周前 0
  4. 感谢分享
    柯基柯基 2周前 0
  5. 有个性和特色的歌手
    cjfst 2周前 0
  6. 感谢分享感谢分享
    ihvh 2周前 0
  7. 谢谢谢谢
    ufosoul 1周前 0
  8. 感谢分享
    明月123 1周前 0
  9. 谢谢分享!!!!!!!!!!!
    maange 1周前 0
  10. 感谢分享
    zgj8 6天前 0
  11. 谢谢楼主分享
    afit88 5天前 0
  12. 感谢老板分享
    xschxz 4天前 0
  13. 感谢分享感谢分享!有个性和特色的歌手,喜欢他
    sgjm1245 4天前 0
  14. 牛逼的分享
    zhengangzhao 3天前 0
  15. 感谢楼主分享
    84682391 3天前 0
  16. 多谢分享!
    lckjay 3天前 0
  17. 谢谢楼主分享
    eningu10 2天前 0
  18. 感谢分享
    crqq 1天前 0
  19. 谢谢
    still广陵 1天前 0
  20. 感谢分享感谢分享
    zgj8 9小时前 0
1 20 21 22
显示验证码
没有账号?注册  忘记密码?