林俊杰 「圣所 Finale」终点站 JJ Lin「Sanctuary Finale」Live Stream Concert 2021.7.10 [WEB-DL MP4 2.91GB]

《圣所》
《编号89757》
《Wonderland》
《简简单单》
《幸存者》
《转动》
《无法克制》
《关键词》
《期待你的爱》
《那些你很冒险的梦》
《明天》
《杀手》
《可惜没如果》
《离开的那一些》
《生生》
《暂时的记号》
《她说》
《记得》
《交换余生》
《修炼爱情》
《江南》
《小酒窝》
《当你》
《Not Tonight》
《因你而在》
《丹宁执着》
《一千年以后》
《不为谁而作的歌》

General
Complete name : I:\urajp.se\TME live-JJ林俊杰《圣所FINALE》终点站线上演唱会-00.01.02.441-02.21.51.721.mp4
Format : MPEG-4
Format profile : Base Media
Codec ID : isom (isom/iso2/avc1/mp41)
File size : 2.92 GiB
Duration : 2 h 20 min
Overall bit rate : 2 969 kb/s
Frame rate : 25.000 FPS
major_brand : isom
minor_version : 512
compatible_brands : isomiso2avc1mp41
title : 圣所终点站
encoder : Lavf60.3.100

Video
ID : 1
Format : AVC
Format/Info : Advanced Video Codec
Format profile : High@L4
Format settings : CABAC / 4 Ref Frames
Format settings, CABAC : Yes
Format settings, Reference fra : 4 frames
Codec ID : avc1
Codec ID/Info : Advanced Video Coding
Duration : 2 h 20 min
Source duration : 2 h 20 min
Bit rate : 2 703 kb/s
Width : 1 920 pixels
Height : 1 080 pixels
Display aspect ratio : 16:9
Frame rate mode : Variable
Frame rate : 25.000 FPS
Minimum frame rate : 23.810 FPS
Maximum frame rate : 26.316 FPS
Color space : YUV
Chroma subsampling : 4:2:0
Bit depth : 8 bits
Scan type : Progressive
Bits/(Pixel*Frame) : 0.052
Stream size : 2.66 GiB (91%)
Source stream size : 2.66 GiB (91%)
Codec configuration box : avcC

Audio
ID : 2
Format : AAC LC
Format/Info : Advanced Audio Codec Low Complexity
Codec ID : mp4a-40-2
Duration : 2 h 20 min
Bit rate mode : Constant
Bit rate : 265 kb/s
Channel(s) : 2 channels
Channel layout : L R
Sampling rate : 48.0 kHz
Frame rate : 46.875 FPS (1024 SPF)
Compression mode : Lossy
Stream size : 261 MiB (9%)
Default : Yes
Alternate group : 1

资源下载
下载价格5 金币
VIP免费
所有资源都在百度网盘,如有链接失效、解压错误等、请联系管理微信:lgychcom
原文链接:https://www.lgych.com/80533.html,转载请注明出处。
0

评论82

请先
  1. 感謝分享
    简单7815 7天前 0
  2. 酷酷酷
    panpan196 3天前 0
1 3 4 5
滚石精彩金曲系列09[DVD-ISO][3.89G]
滚石精彩金曲系列09[DVD-ISO][3.89G]
9分钟前 有人购买 去瞅瞅看
显示验证码
没有账号?注册  忘记密码?