湖南卫视春节联欢晚会 2024 1080i H264 [HDTV TS 17.7GB]

龙年将至,你见过由400人组成的超长牵手“龙”吗?本届湖南春晚上,人们心心相印、手手相连,将打造出飞龙在天的恢宏场景。现场“生龙活现”,热闹无限。张艺兴和全场观众一起祈求新年财气满满,时代少年团唱跳表演《有点甜》《少年美》,将爆甜的小年祝福元气满满地送到你身边。还有“国民组合”凤凰传奇金曲串烧连连,嗨唱沸腾全场……

“心愿Camera”环节,张艺兴将带领大家一起喊出新年愿望。摄像机随机捕捉现场观众,这些幸运儿有科研工作者,有跨国汉服情侣,还有十八洞村新婚夫妇等。他们的心愿虽然各不相同,但无不是对美好生活的具象化表达。

《云水潇湘》诉不尽潇湘人文风情。《不到潇湘岂有诗》开卷有得,来自《中国》纪录片中的画家联手打造12米超长震撼画卷,罗云熙化身旅者穿越其中,与其共书诗意潇湘美景。

辐射华夏大地,为传承传统文化、赓续历史文脉,本届湖南春晚特别策划了一系列创意节目。《书中有戏》通过融合越剧、湘剧、黄梅戏、京剧四大戏种,采用新颖的“开卷”形式,生动展现了古籍与现代戏曲的传承与发展。

春晚特别打造了四个联欢时刻,分别是喊出心愿、唱跳狂欢、诉说思念以及迎接新春,多年龄段观众气氛组与你花式联欢,主打的就是一个陪伴。郁可唯献唱《萱草花》,将春节无法与亲人团聚的思念娓娓道来;邓男子《惊喜不能停》魔术一改嘉宾出场方式,从海报里“大变活人”,强烈的视觉冲击让人大饱眼福;华晨宇《点燃银河尽头的篝火》带你沉浸式徜徉“银河”与“星海”,张杰《鲜艳的狂想》向日葵花海让你一秒进入浪漫梦境。

General
ID : 30 (0x1E)
Complete name : 2024湖南卫视春节联欢晚会.20240203.1080i.HNSTV.HDTV.H.264.DD5.1.ts
Format : MPEG-TS
File size : 17.7 GiB
Duration : 3 h 39 min
Overall bit rate mode : Variable
Overall bit rate : 11.6 Mb/s
Frame rate : 25.000 FPS

Video
ID : 6310 (0x18A6)
Menu ID : 631 (0x277)
Format : AVC
Format/Info : Advanced Video Codec
Format profile : High@L4
Format settings : CABAC / 2 Ref Frames
Format settings, CABAC : Yes
Format settings, Reference fra : 2 frames
Codec ID : 27
Duration : 3 h 39 min
Bit rate : 10.5 Mb/s
Width : 1 920 pixels
Height : 1 080 pixels
Display aspect ratio : 16:9
Frame rate : 25.000 FPS
Standard : Component
Color space : YUV
Chroma subsampling : 4:2:0
Bit depth : 8 bits
Scan type : Interlaced
Scan type, store method : Separated fields
Scan order : Top Field First
Bits/(Pixel*Frame) : 0.203
Stream size : 16.2 GiB (91%)
Encryption : Encrypted
Color range : Limited
Color primaries : BT.709
Transfer characteristics : BT.709
Matrix coefficients : BT.709

Audio
ID : 6311 (0x18A7)
Menu ID : 631 (0x277)
Format : AC-3
Format/Info : Audio Coding 3
Commercial name : Dolby Digital
Codec ID : 6
Duration : 3 h 39 min
Bit rate mode : Constant
Bit rate : 448 kb/s
Channel(s) : 6 channels
Channel layout : L R C LFE Ls Rs
Sampling rate : 48.0 kHz
Frame rate : 31.250 FPS (1536 SPF)
Compression mode : Lossy
Delay relative to video : -7 ms
Stream size : 704 MiB (4%)
Service kind : Complete Main
Encryption : Encrypted

资源下载
下载价格10 金币
VIP免费
所有资源都在百度网盘,如有链接失效、解压错误等、请联系管理微信:lgychcom
原文链接:https://www.lgych.com/80546.html,转载请注明出处。
0

评论36

请先
  1. 感谢楼主分享
    wuyu504505 2024-03-08 0
  2. 谢谢楼主分享
    leequan 2024-03-09 0
  3. 谢谢分享
    swc20020718mnc 2024-03-09 0
  4. 感谢楼主分享
    wtc214351 2024-03-09 0
  5. 感谢楼主分享
    202089098 2024-03-10 0
  6. 谢谢分享
    guni 2024-03-10 0
  7. 感谢分享
    Jixiansheng 2024-03-10 0
  8. 感谢提供分享精品资源
    liuchanglin 2024-03-12 0
  9. 感谢分享
    南歌123 4周前 0
  10. 有些冗长
    秋夜芦荻 3周前 0
  11. 感謝分享!!感謝分享!!
    ShinkoWONG 3周前 0
  12. 感谢楼主分享
    doctormeng 3周前 0
  13. 感谢分享
    Syny 3周前 0
  14. 春晚年年办,年年想创新。
    mldmybox 3周前 0
  15. 终于靠签到集齐10金币了 赶紧下载起来
    911147696@qq.com 1周前 0
  16. 谢谢分享哈
    Flynn 3天前 0
1 2
Juice=Juice 10th ANNIVERSARY CONCERT TOUR ~10th Juice at BUDOKAN~2023 [BDISO 43.4GB]
Juice=Juice 10th ANNIVERSARY CONCERT TOUR ~10th Juice at BUDOKAN~2023 [BDISO 43.4GB]
刚刚 有人购买 去瞅瞅看
显示验证码
没有账号?注册  忘记密码?