NewJeans - How Sweet [2160P Bugs MP4 1.41GB]

General
Complete name : I:\tougao\NewJeans - How Sweet 【Bugs 2160p】.mp4
Format : MPEG-4
Format profile : Base Media / Version 2
Codec ID : mp42 (mp42/mp41)
File size : 1.41 GiB
Duration : 4 min 2 s
Overall bit rate mode : Variable
Overall bit rate : 50.0 Mb/s
Frame rate : 23.976 FPS
Encoded date : 2024-05-24 01:22:04 UTC
Tagged date : 2024-05-24 01:22:12 UTC
TIM : 00:00:00:00
TSC : 24000
TSZ : 1001

Video
ID : 1
Format : AVC
Format/Info : Advanced Video Codec
Format profile : Main@L5.1
Format settings : CABAC / 4 Ref Frames
Format settings, CABAC : Yes
Format settings, Reference fra : 4 frames
Codec ID : avc1
Codec ID/Info : Advanced Video Coding
Duration : 4 min 2 s
Bit rate : 49.6 Mb/s
Width : 3 840 pixels
Height : 2 160 pixels
Display aspect ratio : 16:9
Frame rate mode : Constant
Frame rate : 23.976 (24000/1001) FPS
Color space : YUV
Chroma subsampling : 4:2:0
Bit depth : 8 bits
Scan type : Progressive
Bits/(Pixel*Frame) : 0.249
Stream size : 1.40 GiB (99%)
Language : English
Encoded date : 2024-05-24 01:22:04 UTC
Tagged date : 2024-05-24 01:22:04 UTC
Color range : Limited
Color primaries : BT.709
Transfer characteristics : BT.709
Matrix coefficients : BT.709
Codec configuration box : avcC

Audio
ID : 2
Format : AAC LC
Format/Info : Advanced Audio Codec Low Complexity
Codec ID : mp4a-40-2
Duration : 4 min 2 s
Source duration : 4 min 2 s
Bit rate mode : Variable
Bit rate : 317 kb/s
Maximum bit rate : 376 kb/s
Channel(s) : 2 channels
Channel layout : L R
Sampling rate : 48.0 kHz
Frame rate : 46.875 FPS (1024 SPF)
Compression mode : Lossy
Stream size : 9.18 MiB (1%)
Source stream size : 9.18 MiB (1%)
Language : English
Encoded date : 2024-05-24 01:22:04 UTC
Tagged date : 2024-05-24 01:22:04 UTC

资源下载
下载价格5 金币
包年VIP免费
所有资源都在百度网盘,如有链接失效、解压错误等、请联系管理微信:lgychcom
原文链接:https://www.lgych.com/85844.html,转载请注明出处。
0

评论51

请先
  1. 谢谢分享
    罗蜗牛A 1周前 0
  2. 谢谢分享
    m323b200 7天前 0
  3. 感谢分享
    koon1328 7天前 0
  4. 谢谢分享
    mmkk 6天前 0
  5. 多谢分享
    冰可樂 6天前 0
  6. 感谢分享
    孝叔叔叔 6天前 0
  7. 谢谢楼主分享
    hb34986 4天前 0
  8. 感谢分享
    yeziyin 4天前 0
  9. 谢谢分享
    孝叔叔叔 2天前 0
  10. 谢谢分享
    aassaass 1天前 0
  11. 感谢分享!!!!!!!
    uk2003 4小时前 0
1 2 3
显示验证码
没有账号?注册  忘记密码?