aespa - Armageddon [2160P Bugs MP4 2.48GB]

General
Complete name : I:\tougao\aespa - Armageddon【Bugs 2160p】.mp4
Format : MPEG-4
Format profile : Base Media / Version 2
Codec ID : mp42 (mp42/mp41)
File size : 2.48 GiB
Duration : 3 min 32 s
Overall bit rate mode : Variable
Overall bit rate : 100 Mb/s
Frame rate : 23.976 FPS
Encoded date : 2024-05-27 08:49:19 UTC
Tagged date : 2024-05-27 08:50:16 UTC
TIM : 00:00:01:01
TSC : 24000
TSZ : 1001

Video
ID : 1
Format : AVC
Format/Info : Advanced Video Codec
Format profile : Main@L5.1
Format settings : CABAC / 1 Ref Frames
Format settings, CABAC : Yes
Format settings, Reference fra : 1 frame
Format settings, GOP : M=1, N=30
Codec ID : avc1
Codec ID/Info : Advanced Video Coding
Duration : 3 min 32 s
Bit rate : 99.6 Mb/s
Width : 3 840 pixels
Height : 2 160 pixels
Display aspect ratio : 16:9
Frame rate mode : Constant
Frame rate : 23.976 (24000/1001) FPS
Color space : YUV
Chroma subsampling : 4:2:0
Bit depth : 8 bits
Scan type : Progressive
Bits/(Pixel*Frame) : 0.501
Stream size : 2.47 GiB (99%)
Language : English
Encoded date : 2024-05-27 08:49:19 UTC
Tagged date : 2024-05-27 08:49:19 UTC
Codec configuration box : avcC

Audio
ID : 2
Format : AAC LC
Format/Info : Advanced Audio Codec Low Complexity
Codec ID : mp4a-40-2
Duration : 3 min 32 s
Source duration : 3 min 32 s
Bit rate mode : Variable
Bit rate : 317 kb/s
Maximum bit rate : 501 kb/s
Channel(s) : 2 channels
Channel layout : L R
Sampling rate : 48.0 kHz
Frame rate : 46.875 FPS (1024 SPF)
Compression mode : Lossy
Stream size : 8.05 MiB (0%)
Source stream size : 8.05 MiB (0%)
Language : English
Encoded date : 2024-05-27 08:49:19 UTC
Tagged date : 2024-05-27 08:49:19 UTC

资源下载
下载价格5 金币
包年VIP免费
所有资源都在百度网盘,如有链接失效、解压错误等、请联系管理微信:lgychcom
原文链接:https://www.lgych.com/85845.html,转载请注明出处。
0

评论76

请先
  1. 感谢分享
    lone33985 4天前 0
  2. 感谢分享
    yeziyin 4天前 0
  3. 谢谢分享
    livelive 4天前 0
  4. 感谢分享
    eningu20 3天前 0
  5. 感谢分享
    L0Freedom 3天前 0
  6. 感谢分享!!!
    herbertluk 2天前 0
  7. 感谢分享
    yuexian830 2天前 0
  8. 谢谢分享
    aassaass 2天前 0
  9. 谢谢分享
    HY0768 2天前 0
  10. 感谢分享!!!
    ethan99 2天前 0
  11. 好看好听,资源太好了,
    nicyuan 2天前 0
  12. 谢谢分享
    孝叔叔叔 2天前 0
  13. 感谢楼主分享
    yjnter 21小时前 0
  14. 感谢分享
    121823870@qq.com 20小时前 0
  15. 感谢分享
    uk2003 5小时前 0
1 2 3 4
显示验证码
没有账号?注册  忘记密码?