2015里约摇滚音乐节拉斯维加斯美国站 Rock In Rio in Las Vegas 16 05 2015《TS HDTV 25.59G》

   

eneral
ID                             : 1 (0x1)
Complete name                  : Rock In

Rio\JESSIC J+ED SHEERAN.ts
Format                         : MPEG-TS
File size                      : 18.9 GiB
Duration                       : 3h 0mn
Overall bit rate mode          : Variable
Overall bit rate               : 15.0 Mbps
Network name                   : RRMedia USA ENC-15
Original network name          : Astra Satellite Network

19,2'E
Frequency                      : 4080000000
OrbitalPosition                : 97.0W

Video
ID                             : 408 (0x198)
Menu ID                        : 1 (0x1)
Format                         : AVC
Format/Info                    : Advanced Video Codec
Format profile                 : High@L4.1
Format settings, CABAC         : Yes
Format settings, ReFrames      : 4 frames
Codec ID                       : 27
Duration                       : 3h 0mn
Bit rate mode                  : Variable
Bit rate                       : 14.1 Mbps
Maximum bit rate               : 14.5 Mbps
Width                          : 1 920 pixels
Height                         : 1 080 pixels
Display aspect ratio           : 16:9
Frame rate                     : 25.000 fps
Color space                    : YUV
Chroma subsampling             : 4:2:0
Bit depth                      : 8 bits
Scan type                      : MBAFF
Scan order                     : Top Field First
Bits/(Pixel*Frame)             : 0.272
Stream size                    : 17.7 GiB (94%)
Color primaries                : BT.709
Transfer characteristics       : BT.709
Matrix coefficients            : BT.709
Color range                    : Limited

Audio
ID                             : 456 (0x1C8)
Menu ID                        : 1 (0x1)
Format                         : MPEG Audio
Format version                 : Version 1
Format profile                 : Layer 2
Mode extension                 : Intensity Stereo + MS

Stereo
Codec ID                       : 3
Duration                       : 3h 0mn
Bit rate mode                  : Constant
Bit rate                       : 192 Kbps
Channel(s)                     : 2 channels
Sampling rate                  : 48.0 KHz
Compression mode               : Lossy
Delay relative to video        : -323ms
Stream size                    : 247 MiB (1%)
Language                       : English

Menu
ID                             : 480 (0x1E0)
Menu ID                        : 1 (0x1)
Duration                       : 3h 0mn
List                           : 408 (0x198) (AVC) / 456

(0x1C8) (MPEG Audio, English)
Language                       :  / English
Service type                   : advanced codec HD

digital television

General
ID                             : 1 (0x1)
Complete name                  : Rock In Rio\Charli XCX.ts
Format                         : MPEG-TS
File size                      : 6.71 GiB
Duration                       : 1h 3mn
Overall bit rate mode          : Variable
Overall bit rate               : 15.1 Mbps

Video
ID                             : 408 (0x198)
Menu ID                        : 1 (0x1)
Format                         : AVC
Format/Info                    : Advanced Video Codec
Format profile                 : High@L4.1
Format settings, CABAC         : Yes
Format settings, ReFrames      : 4 frames
Codec ID                       : 27
Duration                       : 1h 3mn
Bit rate mode                  : Variable
Bit rate                       : 14.2 Mbps
Maximum bit rate               : 14.5 Mbps
Width                          : 1 920 pixels
Height                         : 1 080 pixels
Display aspect ratio           : 16:9
Frame rate                     : 25.000 fps
Color space                    : YUV
Chroma subsampling             : 4:2:0
Bit depth                      : 8 bits
Scan type                      : MBAFF
Scan order                     : Top Field First
Bits/(Pixel*Frame)             : 0.273
Stream size                    : 6.29 GiB (94%)
Color primaries                : BT.709
Transfer characteristics       : BT.709
Matrix coefficients            : BT.709
Color range                    : Limited

Audio
ID                             : 456 (0x1C8)
Menu ID                        : 1 (0x1)
Format                         : MPEG Audio
Format version                 : Version 1
Format profile                 : Layer 2
Mode extension                 : Intensity Stereo + MS Stereo
Codec ID                       : 3
Duration                       : 1h 3mn
Bit rate mode                  : Constant
Bit rate                       : 192 Kbps
Channel(s)                     : 2 channels
Sampling rate                  : 48.0 KHz
Compression mode               : Lossy
Delay relative to video        : -307ms
Stream size                    : 87.3 MiB (1%)
Language                       : English

资源下载此资源仅限注册用户下载,请先
资源在百度网盘,如有链接失效、解压码错误等、请联系管理微信:aimuvv
资源下载
下载价格:免费
资源在百度网盘,如有链接失效、解压码错误等、请联系管理微信:aimuvv

原文链接:https://www.lgych.com/15371.html,转载请注明出处。

2

评论382

请先

  1. 感谢分享资源
    xinhuiye16小时前
1 18 19 20

无损音乐站推荐 - 乐海拾贝无损音乐网站,专注于wav、flac、ape等无损音乐专辑和单曲:https://www.yuehaishibei.com/

没有账号? 注册  忘记密码?