BanG Dream! LIVE - RAISE A SUILEN -Craziness《BDrip MKV 6.88G》

[滤镜使用列表]
(1) Built-in MKV Source
(2) Built-in Video Codec/Transform
(3) Enhanced Video Renderer(Custom Present)
(4) Built-in Audio Codec/Transform
(5) DirectSound Audio Renderer

[视频信息]
视频编码: AVC1 - 内置 FFmpeg 解码器(h264, Thread Frame)
输入格式: AVC1(24 bits)
输入尺寸: 1920 × 1080(1.78:1)
输出格式: NV12(12 bits)
输出尺寸: 1920 × 1080(1.78:1)
帧率: 23.976
BitRate: 未知

[音频信息]
音频编码: FLAC Framed(0xf1ac) - OpenCodec(FLAC Decoder)
采样率: 48000 -> 48000 Hz
位率: 24 -> 16 位
声道数: 2 -> 2 声道
Bitrate: 2304 kbps

General
Unique ID : 156339192795349740548465820768968784065 (0x759DD55266A74A17ADB6DED644F238C1)
Complete name : I:\BAN-6.88\BanG Dream! LIVE - RAISE A SUILEN -Craziness- [BDRip 1080p].mkv\BanG Dream! LIVE - RAISE A SUILEN -Craziness- [BDRip 1080p].mkv
Format : Matroska
Format version : Version 4
File size : 6.88 GiB
Duration : 1 h 39 min
Overall bit rate mode : Variable
Overall bit rate : 9 863 kb/s
Movie name : RAISE A SUILEN「mind of Prominence」【Blu-ray付生産限定盤】
Encoded date : UTC 2021-02-01 15:38:41
Writing application : mkvmerge v53.0.0 ('Fool's Gold') 64-bit
Writing library : libebml v1.4.1 + libmatroska v1.6.2
Cover : Yes
Attachments : cover.jpg

Video
ID : 1
Format : AVC
Format/Info : Advanced Video Codec
Format profile : High@L4.2
Format settings : CABAC / 4 Ref Frames
Format settings, CABAC : Yes
Format settings, Reference fra : 4 frames
Codec ID : V_MPEG4/ISO/AVC
Duration : 1 h 39 min
Bit rate : 8 000 kb/s
Width : 1 920 pixels
Height : 1 080 pixels
Display aspect ratio : 16:9
Frame rate mode : Constant
Frame rate : 23.976 (24000/1001) FPS
Color space : YUV
Chroma subsampling : 4:2:0
Bit depth : 8 bits
Scan type : Progressive
Bits/(Pixel*Frame) : 0.161
Stream size : 5.58 GiB (81%)
Writing library : x264 core 161 r3043+53M 5ab00ad t_mod_New [(8 & 10)-bit@all X86_64]
Encoding settings : cabac=1 / ref=4 / deblock=1:-1:-1 / analyse=0x3:0x133 / me=umh / subme=10 / psy=1 / fade_compensate=0.00 / psy_rd=1.00:0.00 / mixed_ref=1 / me_range=32 / chroma_me=1 / trellis=2 / 8x8dct=1 / cqm=0 / deadzone=21,11 / fast_pskip=1 / chroma_qp_offset=-2 / threads=34 / lookahead_threads=8 / sliced_threads=0 / nr=0 / decimate=1 / interlaced=0 / bluray_compat=0 / constrained_intra=0 / fgo=0 / bframes=16 / b_pyramid=2 / b_adapt=2 / b_bias=0 / direct=3 / weightb=1 / open_gop=0 / weightp=2 / keyint=250 / keyint_min=23 / scenecut=40 / intra_refresh=0 / rc_lookahead=60 / rc=2pass / mbtree=1 / bitrate=8000 / ratetol=1.0 / qcomp=0.70 / qpmin=0:0:0 / qpmax=69:69:69 / qpstep=4 / cplxblur=20.0 / qblur=0.5 / ip_ratio=1.40 / aq=3:1.00 / aq-sensitivity=10.00 / aq-factor=1.00:1.00:1.00 / aq2=0 / aq3=0
Language : Japanese
Default : Yes
Forced : No
Color range : Limited
Color primaries : BT.709
Transfer characteristics : BT.709
Matrix coefficients : BT.709

Audio
ID : 2
Format : FLAC
Format/Info : Free Lossless Audio Codec
Codec ID : A_FLAC
Duration : 1 h 39 min
Bit rate mode : Variable
Bit rate : 1 861 kb/s
Channel(s) : 2 channels
Channel layout : L R
Sampling rate : 48.0 kHz
Frame rate : 11.719 FPS (4096 SPF)
Bit depth : 24 bits
Compression mode : Lossless
Stream size : 1.30 GiB (19%)
Writing library : libFLAC 1.3.2 (UTC 2017-01-01)
Language : Japanese
Default : Yes
Forced : No

Menu
00:00:00.000 : ja:Intro
00:00:26.901 : ja:Beginning
00:03:19.240 : ja:DRIVE US CRAZY
00:07:26.279 : ja:A DECLARATION OF ×××
00:13:31.644 : ja:05
00:14:46.051 : ja:UNSTOPPABLE
00:18:39.618 : ja:RAS members' introduction
00:21:02.261 : ja:Lonely Night (ヒトリノ夜)
00:24:59.498 : ja:1/3 of Pure Feelings (1/3の純情な感情)
00:28:44.055 : ja:Goka! Gokai!? Phantom Thief! (ゴーカ!ごーかい!?ファントムシーフ)
00:32:24.943 : ja:Don't be afraid!
00:36:35.109 : ja:Y.O.L.O!!!!!
00:41:18.476 : ja:Luminous Once More (もういちどルミナス)
00:46:37.795 : ja:Takin' my Heart
00:51:35.092 : ja:Break
00:56:36.726 : ja:Invincible Fighter
01:00:52.649 : ja:Instrument plays 1
01:03:53.496 : ja:HELL! or HELL?
01:08:51.961 : ja:Instrument plays 2
01:10:05.326 : ja:SOUL SOLDIER
01:14:13.449 : ja:Turbulence (激動)
01:19:47.449 : ja:EXPOSE 'Burn out!!!'
01:25:31.292 : ja:23
01:27:56.145 : ja:R・I・O・T
01:33:57.632 : ja:End

 

资源下载此资源下载价格为5金币,VIP免费,请先
所有资源都在百度网盘,如有链接失效、解压错误等、请联系管理微信:aimuvv
资源下载
下载价格5 金币
VIP免费
所有资源都在百度网盘,如有链接失效、解压错误等、请联系管理微信:aimuvv

原文链接:https://www.lgych.com/40530.html,转载请注明出处。

0

评论140

请先

  1. 谢谢分享!非常棒的网站
    luisi 2022-05-08 0
  2. 谢谢分享!非常棒的网站
    simoneluisi 2022-05-08 0
  3. 這個是相當的的不錯
    bobiti2622 2022-05-12 0
  4. 多谢分享
    CSLancelot 2022-05-12 0
  5. 谢谢分享!
    user_zbz 2022-05-31 0
  6. 谢谢分享
    daniao 2022-06-10 0
  7. 谢谢分享
    awccn8888 2022-06-23 0
  8. 谢谢分享
    Handsche 2022-07-11 0
  9. 皮皮巴巴多谢分享!皮皮巴巴多谢分享!皮皮巴巴多谢分享!皮皮巴巴多谢分享!
    路遥知马丽 2022-07-11 0
  10. 谢谢分享!
    hym9711 4周前 0
  11. 谢谢分享!
    hymhym 4周前 0
  12. 谢谢分享!
    huyiming249 4周前 0
  13. 谢谢分享!
    971145 4周前 0
  14. 感谢楼主无私奉献
    lijinqiao2020 2周前 0
1 5 6 7
华语蓝光合集 252部11T资源终极收藏!支持硬盘拷贝:https://www.lgych.com/cnbd/
显示验证码
没有账号? 注册  忘记密码?