BanG Dream! LIVE - Roselia -Rausch《BDrip MKV 9.17G》

[滤镜使用列表]
(1) Built-in MKV Source
(2) Built-in Video Codec/Transform
(3) Enhanced Video Renderer(Custom Present)
(4) Built-in Audio Codec/Transform
(5) DirectSound Audio Renderer

[视频信息]
视频编码: AVC1 - 内置 FFmpeg 解码器(h264, Thread Frame)
输入格式: AVC1(24 bits)
输入尺寸: 1920 × 1080(1.78:1)
输出格式: NV12(12 bits)
输出尺寸: 1920 × 1080(1.78:1)
帧率: 23.976
BitRate: 未知

[音频信息]
音频编码: FLAC Framed(0xf1ac) - OpenCodec(FLAC Decoder)
采样率: 48000 -> 48000 Hz
位率: 24 -> 16 位
声道数: 2 -> 2 声道
Bitrate: 2304 kbps

General
Unique ID : 64515636965993793489652172375228997239 (0x3089427C724B80827D8288D44A7CDE77)
Complete name : I:\BAN-9.17\BanG Dream! LIVE - Roselia -Rausch- [BDRip 1080p].mkv\BanG Dream! LIVE - Roselia -Rausch- [BDRip 1080p].mkv
Format : Matroska
Format version : Version 4
File size : 9.17 GiB
Duration : 2 h 14 min
Overall bit rate mode : Variable
Overall bit rate : 9 731 kb/s
Movie name : Roselia「ZEAL of proud」【Blu-ray付生産限定盤】
Encoded date : UTC 2021-01-27 21:33:02
Writing application : mkvmerge v52.0.0 ('Secret For The Mad') 64-bit
Writing library : libebml v1.4.1 + libmatroska v1.6.2
Cover : Yes
Attachments : cover.jpg

Video
ID : 1
Format : AVC
Format/Info : Advanced Video Codec
Format profile : High@L4.2
Format settings : CABAC / 4 Ref Frames
Format settings, CABAC : Yes
Format settings, Reference fra : 4 frames
Codec ID : V_MPEG4/ISO/AVC
Duration : 2 h 14 min
Bit rate : 8 000 kb/s
Width : 1 920 pixels
Height : 1 080 pixels
Display aspect ratio : 16:9
Frame rate mode : Constant
Frame rate : 23.976 (24000/1001) FPS
Color space : YUV
Chroma subsampling : 4:2:0
Bit depth : 8 bits
Scan type : Progressive
Bits/(Pixel*Frame) : 0.161
Stream size : 7.54 GiB (82%)
Writing library : x264 core 161 r3027+53 2464769 t_mod_New [(8 & 10)-bit@all X86_64]
Encoding settings : cabac=1 / ref=4 / deblock=1:-1:-1 / analyse=0x3:0x133 / me=umh / subme=10 / psy=1 / fade_compensate=0.00 / psy_rd=1.00:0.00 / mixed_ref=1 / me_range=32 / chroma_me=1 / trellis=2 / 8x8dct=1 / cqm=0 / deadzone=21,11 / fast_pskip=1 / chroma_qp_offset=-2 / threads=34 / lookahead_threads=8 / sliced_threads=0 / nr=0 / decimate=1 / interlaced=0 / bluray_compat=0 / constrained_intra=0 / fgo=0 / bframes=16 / b_pyramid=2 / b_adapt=2 / b_bias=0 / direct=3 / weightb=1 / open_gop=0 / weightp=2 / keyint=250 / keyint_min=23 / scenecut=40 / intra_refresh=0 / rc_lookahead=60 / rc=2pass / mbtree=1 / bitrate=8000 / ratetol=1.0 / qcomp=0.70 / qpmin=0:0:0 / qpmax=69:69:69 / qpstep=4 / cplxblur=20.0 / qblur=0.5 / ip_ratio=1.40 / aq=3:1.00 / aq-sensitivity=10.00 / aq-factor=1.00:1.00:1.00 / aq2=0 / aq3=0
Language : Japanese
Default : Yes
Forced : No
Color range : Limited
Color primaries : BT.709
Transfer characteristics : BT.709
Matrix coefficients : BT.709

Audio
ID : 2
Format : FLAC
Format/Info : Free Lossless Audio Codec
Codec ID : A_FLAC
Duration : 2 h 14 min
Bit rate mode : Variable
Bit rate : 1 729 kb/s
Channel(s) : 2 channels
Channel layout : L R
Sampling rate : 48.0 kHz
Frame rate : 11.719 FPS (4096 SPF)
Bit depth : 24 bits
Compression mode : Lossless
Stream size : 1.63 GiB (18%)
Writing library : libFLAC 1.3.3 (UTC 2019-08-04)
Language : Japanese
Default : Yes
Forced : No

Menu
00:00:00.000 : ja:Beginning
00:01:25.085 : ja:BLACK SHOUT
00:05:28.870 : ja:R
00:10:15.990 : ja:Roselia members' introduction
00:12:49.018 : ja:Neo-Aspect
00:17:59.870 : ja:Ringing Bloom
00:23:37.082 : ja:Re:birth day
00:28:05.850 : ja:08
00:34:14.385 : ja:BRAVE JEWEL
00:38:22.633 : ja:10
00:38:42.945 : ja:Determination Symphony
00:43:24.935 : ja:12
00:44:42.513 : ja:ONENESS
00:48:40.918 : ja:Break 01
01:04:04.841 : ja:Legendary
01:09:01.804 : ja:Shangri-La
01:13:02.378 : ja:17
01:14:57.493 : ja:PASSIONATE ANTHEM
01:18:59.401 : ja:Passionate Starmine (熱色スターマイン)
01:23:51.026 : ja:20
01:26:00.655 : ja:FIRE BIRD
01:31:30.485 : ja:Break 02
01:49:20.220 : ja:23
01:53:14.078 : ja:Promise (約束)
01:58:17.590 : ja:25
01:58:55.336 : ja:LOUDER
02:03:25.064 : ja:End

资源下载此资源下载价格为5金币,VIP免费,请先
所有资源都在百度网盘,如有链接失效、解压错误等、请联系管理微信:aimuvv
资源下载
下载价格5 金币
VIP免费
所有资源都在百度网盘,如有链接失效、解压错误等、请联系管理微信:aimuvv

原文链接:https://www.lgych.com/40537.html,转载请注明出处。

0

评论144

请先

  1. 谢谢分享!
    971145 4周前 0
  2. 感谢分享。。
    Hakku 4周前 0
  3. 感谢楼主无私奉献
    lijinqiao2020 2周前 0
  4. 感谢分享
    powccd 2周前 0
1 6 7 8
华语蓝光合集 252部11T资源终极收藏!支持硬盘拷贝:https://www.lgych.com/cnbd/
显示验证码
没有账号? 注册  忘记密码?