BanG Dream! LIVE - Rausch und and Craziness DAY 1 (Roselia x RAISE A SUILEN)《BDrip MKV 11.1G》

[滤镜使用列表]
(1) Built-in MKV Source
(2) Built-in Video Codec/Transform
(3) Enhanced Video Renderer(Custom Present)
(4) Built-in Audio Codec/Transform
(5) DirectSound Audio Renderer

[视频信息]
视频编码: AVC1 - 内置 FFmpeg 解码器(h264, Thread Frame)
输入格式: AVC1(24 bits)
输入尺寸: 1920 × 1080(1.78:1)
输出格式: NV12(12 bits)
输出尺寸: 1920 × 1080(1.78:1)
帧率: 23.976
BitRate: 未知

[音频信息]
音频编码: FLAC Framed(0xf1ac) - OpenCodec(FLAC Decoder)
采样率: 48000 -> 48000 Hz
位率: 24 -> 16 位
声道数: 2 -> 2 声道
Bitrate: 2304 kbps

General
Unique ID : 162225365132861464503691208738333098152 (0x7A0B7806375EEC8B8635D9D6367980A8)
Complete name : I:\BAN-11.1\BanG Dream! LIVE - Rausch und and Craziness DAY 1 (Roselia x RAISE A SUILEN) [BDRip 1080p].mkv\BanG Dream! LIVE - Rausch und and Craziness DAY 1 (Roselia x RAISE A SUILEN) [BDRip 1080p].mkv
Format : Matroska
Format version : Version 4
File size : 11.2 GiB
Duration : 2 h 43 min
Overall bit rate mode : Variable
Overall bit rate : 9 800 kb/s
Encoded date : UTC 2020-11-19 08:32:20
Writing application : mkvmerge v51.0.0 ('I Wish') 64-bit
Writing library : libebml v1.4.0 + libmatroska v1.6.2

Video
ID : 1
Format : AVC
Format/Info : Advanced Video Codec
Format profile : High@L4.2
Format settings : CABAC / 4 Ref Frames
Format settings, CABAC : Yes
Format settings, Reference fra : 4 frames
Codec ID : V_MPEG4/ISO/AVC
Duration : 2 h 43 min
Bit rate : 8 000 kb/s
Width : 1 920 pixels
Height : 1 080 pixels
Display aspect ratio : 16:9
Frame rate mode : Constant
Frame rate : 23.976 (24000/1001) FPS
Color space : YUV
Chroma subsampling : 4:2:0
Bit depth : 8 bits
Scan type : Progressive
Bits/(Pixel*Frame) : 0.161
Stream size : 9.14 GiB (82%)
Writing library : x264 core 161 r3027+53 2464769 t_mod_New [(8 & 10)-bit@all X86_64]
Encoding settings : cabac=1 / ref=4 / deblock=1:-1:-1 / analyse=0x3:0x133 / me=umh / subme=10 / psy=1 / fade_compensate=0.00 / psy_rd=1.00:0.00 / mixed_ref=1 / me_range=32 / chroma_me=1 / trellis=2 / 8x8dct=1 / cqm=0 / deadzone=21,11 / fast_pskip=1 / chroma_qp_offset=-2 / threads=6 / lookahead_threads=1 / sliced_threads=0 / nr=0 / decimate=1 / interlaced=0 / bluray_compat=0 / constrained_intra=0 / fgo=0 / bframes=16 / b_pyramid=2 / b_adapt=2 / b_bias=0 / direct=3 / weightb=1 / open_gop=0 / weightp=2 / keyint=250 / keyint_min=23 / scenecut=40 / intra_refresh=0 / rc_lookahead=60 / rc=2pass / mbtree=1 / bitrate=8000 / ratetol=1.0 / qcomp=0.70 / qpmin=0:0:0 / qpmax=69:69:69 / qpstep=4 / cplxblur=20.0 / qblur=0.5 / ip_ratio=1.40 / aq=3:1.00 / aq-sensitivity=10.00 / aq-factor=1.00:1.00:1.00 / aq2=0 / aq3=0
Language : Japanese
Default : Yes
Forced : No
Color range : Limited
Color primaries : BT.709
Transfer characteristics : BT.709
Matrix coefficients : BT.709

Audio
ID : 2
Format : FLAC
Format/Info : Free Lossless Audio Codec
Codec ID : A_FLAC
Duration : 2 h 43 min
Bit rate mode : Variable
Bit rate : 1 798 kb/s
Channel(s) : 2 channels
Channel layout : L R
Sampling rate : 48.0 kHz
Frame rate : 11.719 FPS (4096 SPF)
Bit depth : 24 bits
Compression mode : Lossless
Stream size : 2.05 GiB (18%)
Writing library : libFLAC 1.3.2 (UTC 2017-01-01)
Language : Japanese
Default : Yes
Forced : No

Menu
00:00:00.000 : ja:Beginning
00:01:36.638 : ja:02
00:02:46.166 : ja:R | Roselia
00:07:31.325 : ja:Louder | Roselia
00:11:15.174 : ja:Roselia members' introduction
00:13:28.849 : ja:Neo-Aspect | Roselia
00:18:39.451 : ja:Ringing Bloom | Roselia
00:24:16.455 : ja:Re:birth day | Roselia
00:28:45.724 : ja:09
00:30:24.656 : ja:BRAVE JEWEL | Roselia
00:34:34.072 : ja:FIRE BIRD | Roselia
00:40:00.398 : ja:12
00:42:26.210 : ja:Legendary | Roselia
00:47:23.215 : ja:PASSIONATE ANTHEM | Roselia
00:51:25.791 : ja:15
00:52:58.341 : ja:ONENESS | Roselia
00:57:19.269 : ja:Break: Roselia's and RAS' school life (feat. Aimi and Ayasa Itou) part 1
01:10:54.250 : ja:18
01:11:53.642 : ja:DRIVE US CRAZY | RAISE A SUILEN
01:16:05.894 : ja:A DECLARATION OF xxx | RAISE A SUILEN
01:22:15.263 : ja:21
01:23:04.688 : ja:UNSTOPPABLE | RAISE A SUILEN
01:27:01.049 : ja:RAS members' introduction
01:29:24.692 : ja:Lonely Night (ヒトリノ夜,) | RAISE A SUILEN
01:33:24.098 : ja:Goka! Gokai!? Phantom Thief! (ゴーカ!ごーかい!?ファントムシーフ!) | RAISE A SUILEN
01:37:05.319 : ja:Luminous Once More (もういちどルミナス) | RAISE A SUILEN
01:41:49.603 : ja:Takin' my Heart | RAISE A SUILEN
01:46:47.567 : ja:Instrument plays
01:49:48.832 : ja:HELL! or HELL? | RAISE A SUILEN
01:54:48.715 : ja:1/3 of Pure Feelings (1/3の純情な感情) | RAISE A SUILEN
01:58:31.270 : ja:EXPOSE "Burn out!!!" | RAISE A SUILEN
02:05:22.515 : ja:Break: Roselia's and RAS' school life (feat. Aimi and Ayasa Itou) part 2
02:21:48.249 : ja:33
02:24:26.157 : ja:BLACK SHOUT | Roselia feat. RAISE A SUILEN
02:28:44.916 : ja:35
02:30:18.259 : ja:R.I.O.T | RAISE A SUILEN feat. Roselia
02:35:29.903 : ja:End

 

资源下载此资源下载价格为5金币,VIP免费,请先
所有资源都在百度网盘,如有链接失效、解压错误等、请联系管理微信:aimuvv
资源下载
下载价格5 金币
VIP免费
所有资源都在百度网盘,如有链接失效、解压错误等、请联系管理微信:aimuvv

原文链接:https://www.lgych.com/40544.html,转载请注明出处。

0

评论152

请先

  1. 感谢分享
    powccd 2周前 0
1 6 7 8
华语蓝光合集 252部11T资源终极收藏!支持硬盘拷贝:https://www.lgych.com/cnbd/
显示验证码
没有账号? 注册  忘记密码?