ZAZ Sur La Route 2014 1080p BluRay x264-DEV0《BDrip MKV 11.4G》

[滤镜使用列表]
(1) Built-in MKV Source
(2) Built-in Video Codec/Transform
(3) Enhanced Video Renderer(Custom Present)
(4) Built-in Audio Codec/Transform
(5) DirectSound Audio Renderer

[视频信息]
视频编码: AVC1 - 内置 FFmpeg 解码器(h264, Thread Frame)
输入格式: AVC1(24 bits)
输入尺寸: 1920 × 1080(1.78:1)
输出格式: NV12(12 bits)
输出尺寸: 1920 × 1080(1.78:1)
帧率: 25
BitRate: 未知

[音频信息]
音频编码: FLAC Framed(0xf1ac) - OpenCodec(FLAC Decoder)
采样率: 48000 -> 48000 Hz
位率: 16 -> 16 位
声道数: 2 -> 2 声道
Bitrate: 1536 kbps

General
Unique ID : 221593035801977084923148486732266191944 (0xA6B5442D03C465B3BF3556051DA1BC48)
Complete name : I:\ZAZ-2014-11.4\ZAZ.Sur.La.Route.2014.1080p.BluRay.x264-DEV0[rarbg]\zaz.sur.la.route.1080p.bluray.x264-dev0.mkv
Format : Matroska
Format version : Version 4
File size : 11.4 GiB
Duration : 1 h 52 min
Overall bit rate mode : Variable
Overall bit rate : 14.5 Mb/s
Encoded date : UTC 2020-06-16 14:44:18
Writing application : mkvmerge v8.5.1 ('Where you lead I will follow') 64bit
Writing library : libebml v1.3.3 + libmatroska v1.4.4

Video
ID : 1
Format : AVC
Format/Info : Advanced Video Codec
Format profile : High@L4.1
Format settings : CABAC / 4 Ref Frames
Format settings, CABAC : Yes
Format settings, Reference fra : 4 frames
Codec ID : V_MPEG4/ISO/AVC
Duration : 1 h 52 min
Bit rate : 13.7 Mb/s
Width : 1 920 pixels
Height : 1 080 pixels
Display aspect ratio : 16:9
Frame rate mode : Constant
Frame rate : 25.000 FPS
Color space : YUV
Chroma subsampling : 4:2:0
Bit depth : 8 bits
Scan type : Progressive
Bits/(Pixel*Frame) : 0.265
Stream size : 10.8 GiB (95%)
Writing library : x264 core 160 r3000 33f9e14
Encoding settings : cabac=1 / ref=4 / deblock=1:-3:-3 / analyse=0x3:0x133 / me=umh / subme=10 / psy=1 / psy_rd=1.00:0.15 / mixed_ref=1 / me_range=24 / chroma_me=1 / trellis=2 / 8x8dct=1 / cqm=0 / deadzone=21,11 / fast_pskip=1 / chroma_qp_offset=-3 / threads=24 / lookahead_threads=4 / sliced_threads=0 / nr=0 / decimate=1 / interlaced=0 / bluray_compat=0 / constrained_intra=0 / bframes=8 / b_pyramid=2 / b_adapt=2 / b_bias=0 / direct=3 / weightb=1 / open_gop=0 / weightp=2 / keyint=250 / keyint_min=25 / scenecut=40 / intra_refresh=0 / rc_lookahead=60 / rc=crf / mbtree=1 / crf=18.0 / qcomp=0.60 / qpmin=0 / qpmax=69 / qpstep=4 / ip_ratio=1.40 / aq=3:0.90
Language : English
Default : Yes
Forced : No
Color range : Limited
Matrix coefficients : BT.709

Audio
ID : 2
Format : FLAC
Format/Info : Free Lossless Audio Codec
Codec ID : A_FLAC
Duration : 1 h 52 min
Bit rate mode : Variable
Bit rate : 750 kb/s
Channel(s) : 2 channels
Channel layout : L R
Sampling rate : 48.0 kHz
Frame rate : 11.719 FPS (4096 SPF)
Bit depth : 16 bits
Compression mode : Lossless
Stream size : 604 MiB (5%)
Writing library : libFLAC 1.2.1 (UTC 2007-09-17)
Default : Yes
Forced : No

Text #1
ID : 3
Format : UTF-8
Codec ID : S_TEXT/UTF8
Codec ID/Info : UTF-8 Plain Text
Duration : 1 h 45 min
Bit rate : 25 b/s
Count of elements : 428
Stream size : 20.0 KiB (0%)
Title : English .srt
Language : English
Default : Yes
Forced : Yes

Text #2
ID : 4
Format : UTF-8
Codec ID : S_TEXT/UTF8
Codec ID/Info : UTF-8 Plain Text
Duration : 1 h 45 min
Bit rate : 26 b/s
Count of elements : 426
Stream size : 20.7 KiB (0%)
Title : German .srt
Language : German
Default : No
Forced : No

Text #3
ID : 5
Format : UTF-8
Codec ID : S_TEXT/UTF8
Codec ID/Info : UTF-8 Plain Text
Duration : 1 h 45 min
Bit rate : 30 b/s
Count of elements : 428
Stream size : 23.7 KiB (0%)
Title : French .srt
Language : French
Default : No
Forced : No

Text #4
ID : 6
Format : PGS
Muxing mode : zlib
Codec ID : S_HDMV/PGS
Codec ID/Info : Picture based subtitle format used on BDs/HD-DVDs
Duration : 1 h 45 min
Bit rate : 6 060 b/s
Count of elements : 851
Stream size : 4.59 MiB (0%)
Title : English .sup
Language : English
Default : No
Forced : No

Text #5
ID : 7
Format : PGS
Muxing mode : zlib
Codec ID : S_HDMV/PGS
Codec ID/Info : Picture based subtitle format used on BDs/HD-DVDs
Duration : 1 h 45 min
Bit rate : 6 322 b/s
Count of elements : 851
Stream size : 4.79 MiB (0%)
Title : German .sup
Language : German
Default : No
Forced : No

Text #6
ID : 8
Format : PGS
Muxing mode : zlib
Codec ID : S_HDMV/PGS
Codec ID/Info : Picture based subtitle format used on BDs/HD-DVDs
Duration : 1 h 45 min
Bit rate : 6 271 b/s
Count of elements : 855
Stream size : 4.75 MiB (0%)
Title : Spanish .sup
Language : Spanish
Default : No
Forced : No

Text #7
ID : 9
Format : PGS
Muxing mode : zlib
Codec ID : S_HDMV/PGS
Codec ID/Info : Picture based subtitle format used on BDs/HD-DVDs
Duration : 1 h 45 min
Bit rate : 6 683 b/s
Count of elements : 851
Stream size : 5.06 MiB (0%)
Title : French .sup
Language : French
Default : No
Forced : No

Menu
00:00:00.000 : en:00:00:00.000
00:01:02.520 : en:00:01:02.520
00:04:16.920 : en:00:04:16.920
00:12:33.560 : en:00:12:33.560
00:20:08.800 : en:00:20:08.800
00:25:20.480 : en:00:25:20.480
00:30:52.800 : en:00:30:52.800
00:41:15.960 : en:00:41:15.960
00:46:58.400 : en:00:46:58.400
00:52:54.720 : en:00:52:54.720
00:56:59.840 : en:00:56:59.840
01:02:37.640 : en:01:02:37.640
01:10:01.640 : en:01:10:01.640
01:13:46.560 : en:01:13:46.560
01:18:57.720 : en:01:18:57.720
01:21:43.280 : en:01:21:43.280
01:24:11.480 : en:01:24:11.480
01:29:57.400 : en:01:29:57.400
01:35:20.400 : en:01:35:20.400
01:44:31.720 : en:01:44:31.720
01:49:14.920 : en:01:49:14.920

资源下载此资源下载价格为5金币,VIP免费,请先
所有资源都在百度网盘,如有链接失效、解压错误等、请联系管理微信:aimuvv
资源下载
下载价格5 金币
VIP免费
所有资源都在百度网盘,如有链接失效、解压错误等、请联系管理微信:aimuvv

原文链接:https://www.lgych.com/40643.html,转载请注明出处。

0

评论114

请先

  1. 多謝分享好資源
    nodate2571 2022-06-27 0
  2. 很多好资源谢谢分享!
    simone 2022-07-03 0
  3. 很多好资源谢谢分享!
    luisi 2022-07-03 0
  4. 很多好资源谢谢分享!
    531707712 2022-07-03 0
  5. 很多好资源谢谢分享!
    simoneluisi 2022-07-03 0
  6. 很多好资源谢谢分享!
    simoneluisi1 2022-07-03 0
  7. 很多好资源谢谢分享!
    bcq1 2022-07-03 0
  8. 很多好资源谢谢分享!
    bcx1 2022-07-03 0
  9. 很多好资源谢谢分享!
    bbh1 2022-07-03 0
  10. 很多好资源谢谢分享!
    bbw1 2022-07-03 0
  11. 很多好资源谢谢分享!
    xrl1 2022-07-03 0
  12. 谢谢分享!
    user_zbz 2022-07-08 0
  13. 皮皮巴巴多谢分享!皮皮巴巴多谢分享!皮皮巴巴多谢分享!皮皮巴巴多谢分享!皮皮巴巴多谢分享!皮皮巴巴多谢分享!皮皮巴巴多谢分享!皮皮巴巴多谢分享!
    春天来了 2022-07-11 0
  14. 多谢分享好资源!
    wo94ty 6天前 0
1 4 5 6
华语蓝光合集 252部11T资源终极收藏!支持硬盘拷贝:https://www.lgych.com/cnbd/
显示验证码
没有账号? 注册  忘记密码?