ZAZ Sur la route.2016.BDRip1080p《BDrip MKV 7.47G》

[滤镜使用列表]
(1) Built-in MKV Source
(2) Built-in Video Codec/Transform
(3) Enhanced Video Renderer(Custom Present)
(4) Built-in Audio Codec/Transform
(5) DirectSound Audio Renderer

[视频信息]
视频编码: AVC1 - 内置 FFmpeg 解码器(h264, Thread Frame)
输入格式: AVC1(24 bits)
输入尺寸: 1920 × 1080(1.78:1)
输出格式: NV12(12 bits)
输出尺寸: 1920 × 1080(1.78:1)
帧率: 25
BitRate: 未知

[音频信息]
音频编码: FLAC Framed(0xf1ac) - OpenCodec(FLAC Decoder)
采样率: 48000 -> 48000 Hz
位率: 16 -> 16 位
声道数: 2 -> 2 声道
Bitrate: 1536 kbps

General
Unique ID : 198010136864006439998117924820572661506 (0x94F75D7CF39DB182B136C705FAA76702)
Complete name : I:\ZAZ-2016-7.47\Zaz - Sur la route.2016.BDRip1080p.mkv\Zaz - Sur la route.2016.BDRip1080p.mkv
Format : Matroska
Format version : Version 4
File size : 7.48 GiB
Duration : 1 h 52 min
Overall bit rate mode : Variable
Overall bit rate : 9 503 kb/s
Encoded date : UTC 2016-04-04 16:44:16
Writing application : mkvmerge v8.6.0 ('A Place In Your World') 64bit
Writing library : libebml v1.3.3 + libmatroska v1.4.4

Video
ID : 1
Format : AVC
Format/Info : Advanced Video Codec
Format profile : High@L4.1
Format settings : CABAC / 4 Ref Frames
Format settings, CABAC : Yes
Format settings, Reference fra : 4 frames
Codec ID : V_MPEG4/ISO/AVC
Duration : 1 h 52 min
Bit rate : 8 000 kb/s
Width : 1 920 pixels
Height : 1 080 pixels
Display aspect ratio : 16:9
Frame rate mode : Constant
Frame rate : 25.000 FPS
Color space : YUV
Chroma subsampling : 4:2:0
Bit depth : 8 bits
Scan type : Progressive
Bits/(Pixel*Frame) : 0.154
Stream size : 6.29 GiB (84%)
Writing library : x264 core 146 r2538 121396c
Encoding settings : cabac=1 / ref=4 / deblock=1:-2:-1 / analyse=0x3:0x113 / me=umh / subme=10 / psy=1 / psy_rd=1.00:0.15 / mixed_ref=1 / me_range=28 / chroma_me=1 / trellis=2 / 8x8dct=1 / cqm=0 / deadzone=21,11 / fast_pskip=1 / chroma_qp_offset=-3 / threads=6 / lookahead_threads=1 / sliced_threads=0 / nr=0 / decimate=1 / interlaced=0 / bluray_compat=0 / constrained_intra=0 / bframes=8 / b_pyramid=2 / b_adapt=2 / b_bias=0 / direct=3 / weightb=1 / open_gop=0 / weightp=2 / keyint=250 / keyint_min=25 / scenecut=40 / intra_refresh=0 / rc_lookahead=60 / rc=2pass / mbtree=1 / bitrate=8000 / ratetol=1.0 / qcomp=0.60 / qpmin=0 / qpmax=69 / qpstep=4 / cplxblur=20.0 / qblur=0.5 / vbv_maxrate=50000 / vbv_bufsize=62500 / nal_hrd=none / filler=0 / ip_ratio=1.40 / aq=1:1.00
Default : Yes
Forced : No

Audio #1
ID : 2
Format : FLAC
Format/Info : Free Lossless Audio Codec
Codec ID : A_FLAC
Duration : 1 h 52 min
Bit rate mode : Variable
Bit rate : 750 kb/s
Channel(s) : 2 channels
Channel layout : L R
Sampling rate : 48.0 kHz
Frame rate : 11.719 FPS (4096 SPF)
Bit depth : 16 bits
Compression mode : Lossless
Stream size : 604 MiB (8%)
Writing library : libFLAC 1.2.1 (UTC 2007-09-17)
Default : Yes
Forced : No

Audio #2
ID : 3
Format : DTS
Format/Info : Digital Theater Systems
Codec ID : A_DTS
Duration : 1 h 52 min
Bit rate mode : Constant
Bit rate : 755 kb/s
Channel(s) : 6 channels
Channel layout : C L R Ls Rs LFE
Sampling rate : 48.0 kHz
Frame rate : 93.750 FPS (512 SPF)
Bit depth : 24 bits
Compression mode : Lossy
Stream size : 608 MiB (8%)
Default : No
Forced : No

Menu
00:00:00.000 : en:1. Intro Live Recto Verso Tour
00:01:02.520 : en:2. On ira
00:04:16.920 : en:3. La Vie En Rose
00:12:33.560 : en:4. Le long de la route
00:20:08.800 : en:5. Cette journée
00:25:20.480 : en:6. Eblouie par la nuit
00:30:52.800 : en:7. La Révolution Des Colibris
00:41:15.960 : en:8. Comme ci comme ça
00:46:58.400 : en:9. La Lune
00:52:54.720 : en:10. Si
00:56:59.840 : en:11. Trop Sensible
01:02:37.640 : en:12. Si je perds
01:10:01.640 : en:13. Samba Em Preludio
01:13:46.560 : en:14. La fée
01:18:57.720 : en:15. Minor Swing
01:21:43.280 : en:16. Doxy
01:24:11.480 : en:17. Laisses-moi
01:29:57.400 : en:18. Déterre
01:35:20.400 : en:19. Je veux
01:44:31.720 : en:20. Dos Gardenias
01:49:14.920 : en:21. Si jamais j'oublie

资源下载此资源下载价格为5金币,VIP免费,请先
所有资源都在百度网盘,如有链接失效、解压错误等、请联系管理微信:aimuvv
资源下载
下载价格5 金币
VIP免费
所有资源都在百度网盘,如有链接失效、解压错误等、请联系管理微信:aimuvv

原文链接:https://www.lgych.com/40650.html,转载请注明出处。

0

评论117

请先

  1. 感謝樓主分享
    kfpanda 2022-04-19 0
  2. 多谢分享
    CSLancelot 2022-05-14 0
  3. 非常棒,收藏了
    naxab66263 2022-05-23 0
  4. 谢谢分享
    hd1973 2022-05-31 0
  5. 很多好资源谢谢分享!
    simone 2022-07-03 0
  6. 很多好资源谢谢分享!
    luisi 2022-07-03 0
  7. 很多好资源谢谢分享!
    531707712 2022-07-03 0
  8. 很多好资源谢谢分享!
    simoneluisi 2022-07-03 0
  9. 很多好资源谢谢分享!
    simoneluisi1 2022-07-03 0
  10. 很多好资源谢谢分享!
    bcq1 2022-07-03 0
  11. 很多好资源谢谢分享!
    bcx1 2022-07-03 0
  12. 很多好资源谢谢分享!
    bbh1 2022-07-03 0
  13. 很多好资源谢谢分享!
    bbw1 2022-07-03 0
  14. 很多好资源谢谢分享!
    xrl1 2022-07-03 0
  15. 谢谢分享!
    user_zbz 2022-07-08 0
  16. 皮皮巴巴多谢分享!皮皮巴巴多谢分享!皮皮巴巴多谢分享!皮皮巴巴多谢分享!
    春天来了 2022-07-11 0
  17. 多谢分享好资源!
    wo94ty 6天前 0
1 4 5 6
华语蓝光合集 252部11T资源终极收藏!支持硬盘拷贝:https://www.lgych.com/cnbd/
显示验证码
没有账号? 注册  忘记密码?