Jeff Beck - Live At The Hollywood Bowl 2017《BDRip MKV 10.6G》

[滤镜使用列表]
(1) Built-in MKV Source
(2) Built-in Video Codec/Transform
(3) Enhanced Video Renderer(Custom Present)
(4) Built-in Audio Codec/Transform
(5) DirectSound Audio Renderer

[视频信息]
视频编码: AVC1 - 内置 FFmpeg 解码器(h264, Thread Frame)
输入格式: AVC1(24 bits)
输入尺寸: 1920 × 1080(1.78:1)
输出格式: NV12(12 bits)
输出尺寸: 1920 × 1080(1.78:1)
帧率: 29.97
BitRate: 未知

[音频信息]
音频编码: DTS(0x2001) - FFmpegMininum64.dll(dca)
采样率: 48000 -> 48000 Hz
位率: 24 -> 16 位
声道数: 6 -> 2 声道
Bitrate: 1509 kbps

General
Unique ID : 189508852310910392541209742184078195049 (0x8E9213CC80881CDC8EE1FCC599B93969)
Complete name : J:\JEF-2017-10.6\Jeff Beck - Live At The Hollywood Bowl.2017.BDRip1080p.mkv\Jeff Beck - Live At The Hollywood Bowl.2017.BDRip1080p.mkv
Format : Matroska
Format version : Version 2
File size : 10.6 GiB
Duration : 1 h 37 min
Overall bit rate mode : Variable
Overall bit rate : 15.6 Mb/s
Movie name : Jeff Beck - Live At The Hollywood Bowl.2017.BDRip1080p @ rutracker.org
Encoded date : UTC 2017-10-24 17:06:29
Writing application : mkvmerge v9.8.0 ('Kuglblids') 64bit
Writing library : libebml v1.3.4 + libmatroska v1.4.5

Video
ID : 1
Format : AVC
Format/Info : Advanced Video Codec
Format profile : High@L4.1
Format settings : CABAC / 4 Ref Frames
Format settings, CABAC : Yes
Format settings, Reference fra : 4 frames
Codec ID : V_MPEG4/ISO/AVC
Duration : 1 h 37 min
Bit rate : 12.4 Mb/s
Width : 1 920 pixels
Height : 1 080 pixels
Display aspect ratio : 16:9
Frame rate mode : Constant
Frame rate : 29.970 (30000/1001) FPS
Color space : YUV
Chroma subsampling : 4:2:0
Bit depth : 8 bits
Scan type : Progressive
Bits/(Pixel*Frame) : 0.200
Stream size : 8.41 GiB (79%)
Title : anbelk27 @ rutracker.org
Writing library : x264 core 148 r2744 b97ae06
Encoding settings : cabac=1 / ref=4 / deblock=1:-1:-2 / analyse=0x3:0x133 / me=umh / subme=11 / psy=1 / psy_rd=1.10:0.08 / mixed_ref=1 / me_range=32 / chroma_me=1 / trellis=2 / 8x8dct=1 / cqm=0 / deadzone=21,11 / fast_pskip=1 / chroma_qp_offset=-3 / threads=6 / lookahead_threads=1 / sliced_threads=0 / nr=0 / decimate=1 / interlaced=0 / bluray_compat=0 / constrained_intra=0 / bframes=8 / b_pyramid=2 / b_adapt=2 / b_bias=0 / direct=3 / weightb=1 / open_gop=0 / weightp=2 / keyint=300 / keyint_min=29 / scenecut=50 / intra_refresh=0 / rc_lookahead=50 / rc=2pass / mbtree=1 / bitrate=12400 / ratetol=1.0 / qcomp=0.60 / qpmin=0 / qpmax=69 / qpstep=4 / cplxblur=20.0 / qblur=0.5 / vbv_maxrate=50000 / vbv_bufsize=62500 / nal_hrd=none / filler=0 / ip_ratio=1.40 / aq=1:1.00
Default : Yes
Forced : No

Audio #1
ID : 2
Format : DTS
Format/Info : Digital Theater Systems
Codec ID : A_DTS
Duration : 1 h 37 min
Bit rate mode : Constant
Bit rate : 1 509 kb/s
Channel(s) : 6 channels
Channel layout : C L R Ls Rs LFE
Sampling rate : 48.0 kHz
Frame rate : 93.750 FPS (512 SPF)
Bit depth : 24 bits
Compression mode : Lossy
Stream size : 1.02 GiB (10%)
Title : DTS 5.1 @ 24 bit
Default : Yes
Forced : No

Audio #2
ID : 3
Format : FLAC
Format/Info : Free Lossless Audio Codec
Codec ID : A_FLAC
Duration : 1 h 37 min
Bit rate mode : Variable
Bit rate : 1 714 kb/s
Channel(s) : 2 channels
Channel layout : L R
Sampling rate : 48.0 kHz
Frame rate : 11.719 FPS (4096 SPF)
Bit depth : 24 bits
Compression mode : Lossless
Stream size : 1.16 GiB (11%)
Title : FLAC 2.0 @ 24 bit
Writing library : libFLAC 1.2.1 (UTC 2007-09-17)
Default : No
Forced : No

Menu
00:00:00.000 : en: 1. The Revolution Will Be Televised
00:03:40.153 : en: 2. Over Under Sideways Down
00:06:07.633 : en: 3. Heart Full Of Soul
00:08:02.949 : en: 4. For Your Love
00:10:42.041 : en: 5. Beck's Bolero
00:14:12.318 : en: 6. Rice Pudding / Morning Dew
00:19:41.713 : en: 7. Freeway Jam
00:24:43.915 : en: 8. You Never Know
00:27:31.983 : en: 9. 'Cause We've Ended As Lovers
00:31:34.759 : en: 10. Star Cycle
00:37:33.884 : en: 11. Blue Windr
00:41:58.883 : en: 12. Big Block
00:47:26.076 : en: 13. I'd Rather Go Blind
00:54:15.085 : en: 14. Let Me Love You
00:59:02.939 : en: 15. Live In The Dark
01:03:22.064 : en: 16. Scared For The Children
01:10:37.032 : en: 17. Rough Boy
01:16:01.957 : en: 18. Train Kept A-Rollin'
01:19:26.962 : en: 19. Shapes Of Things
01:22:38.019 : en: 20. A Day In The Life
01:28:39.981 : en: 21. Purple Rain
01:35:07.968 : en: 22. Suspension (Credits)

资源下载此资源下载价格为5金币,VIP免费,请先
所有资源都在百度网盘,如有链接失效、解压错误等、请联系管理微信:aimuvv
资源下载
下载价格5 金币
VIP免费
所有资源都在百度网盘,如有链接失效、解压错误等、请联系管理微信:aimuvv

原文链接:https://www.lgych.com/40810.html,转载请注明出处。

0

评论132

请先

  1. 感謝分享,很難找到這麽全這麽高質量的資源!!
    ifour60 2022-06-19 0
  2. 谢谢分享
    awccn8888 2022-06-21 0
  3. 感谢楼主无私分享好资源!
    xrl1 2022-07-04 0
  4. 感谢楼主无私分享好资源!
    simone 2022-07-04 0
  5. 感谢楼主无私分享好资源!
    luisi 2022-07-04 0
  6. 谢谢分享123
    hymhym 2022-07-05 0
  7. 谢谢分享
    hym9711 2022-07-05 0
  8. 谢谢分享
    huyiming249 2022-07-05 0
  9. 谢谢分享
    971145 2022-07-05 0
  10. 谢谢分享!
    user_zbz 2022-07-11 0
  11. 皮皮巴巴多谢分享!皮皮巴巴多谢分享!皮皮巴巴多谢分享!皮皮巴巴多谢分享!
    我是大男人 2022-07-11 0
  12. 多谢分享好资源!
    wo94ty 1周前 0
1 5 6 7
华语蓝光合集 252部11T资源终极收藏!支持硬盘拷贝:https://www.lgych.com/cnbd/
显示验证码
没有账号? 注册  忘记密码?