彼得·盖布瑞尔 Peter Gabriel - New Blood 3D 2011 halfOU AC3 ash61《Remux MKV 19.6G》

[滤镜使用列表]
(1) Built-in MKV Source
(2) Built-in Video Codec/Transform
(3) Enhanced Video Renderer(Custom Present)
(4) Built-in Audio Codec/Transform
(5) DirectSound Audio Renderer

[视频信息]
视频编码: AVC1 - 内置 FFmpeg 解码器(h264, Thread Frame)
输入格式: AVC1(24 bits)
输入尺寸: 1920 × 1080(1.78:1)
输出格式: NV12(12 bits)
输出尺寸: 1920 × 1080(1.78:1)
帧率: 23.976
BitRate: 未知

[音频信息]
音频编码: Dolby AC3(0x2000) - 内置 FFmpeg 解码器(ac3)
采样率: 48000 -> 48000 Hz
位率: 0 -> 16 位
声道数: 6 -> 2 声道
Bitrate: 640 kbps

General
Unique ID : 209103838632761874016997855445173618951 (0x9D4FEF36DD4D6B7D9C36D7A5F0434907)
Complete name : I:\PET-2011-19.6\Peter.Gabriel-New.Blood-3D.2011.halfOU.AC3-ash61.mkv\Peter.Gabriel-New.Blood-3D.2011.halfOU.AC3-ash61.mkv
Format : Matroska
Format version : Version 2
File size : 19.7 GiB
Duration : 2 h 9 min
Overall bit rate : 21.8 Mb/s
Movie name : Peter Gabriel: New Blood - Live in London - 2011 (ash61)
Encoded date : UTC 2011-10-26 07:25:54
Writing application : mkvmerge v3.4.0 ('Rapunzel') сборка от May 15 2010 09:38:20
Writing library : libebml v0.8.0 + libmatroska v0.9.0

Video
ID : 1
Format : AVC
Format/Info : Advanced Video Codec
Format profile : High@L4.1
Format settings : CABAC / 4 Ref Frames
Format settings, CABAC : Yes
Format settings, Reference fra : 4 frames
Codec ID : V_MPEG4/ISO/AVC
Duration : 2 h 9 min
Bit rate : 20.7 Mb/s
Width : 1 920 pixels
Height : 1 080 pixels
Display aspect ratio : 16:9
Frame rate mode : Constant
Frame rate : 23.976 (24000/1001) FPS
Color space : YUV
Chroma subsampling : 4:2:0
Bit depth : 8 bits
Scan type : Progressive
Bits/(Pixel*Frame) : 0.417
Stream size : 18.7 GiB (95%)
Title : Rip by Ash61
Writing library : x264 core 113 r1884 7313bb5
Encoding settings : cabac=1 / ref=4 / deblock=1:-3:-3 / analyse=0x3:0x113 / me=umh / subme=9 / psy=1 / psy_rd=1.00:0.15 / mixed_ref=1 / me_range=16 / chroma_me=1 / trellis=2 / 8x8dct=1 / cqm=0 / deadzone=21,11 / fast_pskip=1 / chroma_qp_offset=-3 / threads=3 / sliced_threads=0 / nr=0 / decimate=1 / interlaced=0 / constrained_intra=0 / bframes=6 / b_pyramid=2 / b_adapt=2 / b_bias=0 / direct=3 / weightb=1 / open_gop=0 / weightp=2 / keyint=250 / keyint_min=23 / scenecut=40 / intra_refresh=0 / rc_lookahead=60 / rc=crf / mbtree=1 / crf=18.0 / qcomp=0.70 / qpmin=0 / qpmax=69 / qpstep=4 / ip_ratio=1.40 / aq=1:1.00
Default : Yes
Forced : No

Audio
ID : 2
Format : AC-3
Format/Info : Audio Coding 3
Commercial name : Dolby Digital
Codec ID : A_AC3
Duration : 2 h 9 min
Bit rate mode : Constant
Bit rate : 640 kb/s
Channel(s) : 6 channels
Channel layout : L R C LFE Ls Rs
Sampling rate : 48.0 kHz
Frame rate : 31.250 FPS (1536 SPF)
Compression mode : Lossy
Stream size : 592 MiB (3%)
Language : English
Service kind : Complete Main
Default : Yes
Forced : No

Menu
00:00:00.000 : :01
00:05:47.347 : :02
00:12:49.936 : :03
00:17:18.162 : :04
00:22:44.530 : :05
00:25:38.746 : :06
00:29:32.354 : :07
00:35:58.156 : :08
00:42:28.838 : :09
00:49:09.947 : :10
00:56:42.149 : :11
01:02:22.739 : :12
01:10:54.750 : :13
01:16:55.361 : :14
01:23:09.067 : :15
01:29:19.604 : :16
01:35:24.802 : :17
01:40:45.623 : :18
01:46:54.575 : :19
01:55:08.360 : :20
02:02:49.779 : :21

资源下载此资源下载价格为10金币,VIP免费,请先
所有资源都在百度网盘,如有链接失效、解压错误等、请联系管理微信:aimuvv
资源下载
下载价格10 金币
VIP免费
所有资源都在百度网盘,如有链接失效、解压错误等、请联系管理微信:aimuvv

原文链接:https://www.lgych.com/40877.html,转载请注明出处。

0

评论116

请先

  1. 謝謝分享
    stacy1212 2022-03-14 0
  2. 应该是3D的吧
    baby2000 2022-03-15 0
  3. 感謝分享
    Alvin1220 2022-03-18 0
  4. 多谢分享好资源
    pcduke 2022-03-21 0
  5. 多谢分享好资源
    romona 2022-03-21 0
  6. 谢谢分享
    stef2 2022-03-28 0
  7. 非常精彩,感谢分享资源!
    doingbeyond 2022-03-30 0
  8. 谢谢分享
    Biggoxie 2022-04-04 0
  9. 感谢分享 都是我的最爱!
    响你笑哈哈 2022-04-17 0
  10. 多谢分享
    CSLancelot 2022-05-22 0
  11. 好多歌曲都好聽。
    bobiti2622 2022-05-29 0
  12. 谢谢分享
    awccn8888 2022-06-19 0
  13. 谢谢分享!
    user_zbz 2022-07-11 0
  14. 皮皮巴巴多谢分享!皮皮巴巴多谢分享!皮皮巴巴多谢分享!皮皮巴巴多谢分享!
    我是大男人 2022-07-11 0
  15. 多谢分享好资源!
    wo94ty 1周前 0
1 4 5 6
华语蓝光合集 252部11T资源终极收藏!支持硬盘拷贝:https://www.lgych.com/cnbd/
显示验证码
没有账号? 注册  忘记密码?