Take That Ultimate Tour 2006 1080p《BDrip MKV 7.94G》

[视频信息]
视频编码: AVC1 - 内置 FFmpeg 解码器(h264, Thread Frame)
输入格式: AVC1(24 bits)
输入尺寸: 1920 × 1080(1.78:1)
输出格式: NV12(12 bits)
输出尺寸: 1920 × 1080(1.78:1)
帧率: 29.97
BitRate: 未知

[音频信息]
音频编码: DTS(0x2001) - FFmpegMininum64.dll(dca)
采样率: 48000 -> 48000 Hz
位率: 0 -> 16 位
声道数: 6 -> 2 声道
Bitrate: 960 kbps

General
Unique ID : 249475819377957142576631691366706827626 (0xBBAF4B8B48B314B181C5647AE2FDD16A)
Complete name : I:\TAK-2006-7.94\Take.That.Ultimate.Tour.2006.1080p.BluRay.x264-CLASSiC\takethat1080-cls.mkv
Format : Matroska
Format version : Version 2
File size : 7.95 GiB
Duration : 1 h 49 min
Overall bit rate : 10.4 Mb/s
Encoded date : UTC 2009-11-14 15:38:08
Writing application : mkvmerge v2.9.8 ('C'est le bon') built on Aug 13 2009 12:49:06
Writing library : libebml v0.7.7 + libmatroska v0.8.1

Video
ID : 1
Format : AVC
Format/Info : Advanced Video Codec
Format profile : High@L4.1
Format settings : CABAC / 4 Ref Frames
Format settings, CABAC : Yes
Format settings, Reference fra : 4 frames
Codec ID : V_MPEG4/ISO/AVC
Duration : 1 h 49 min
Bit rate : 9 411 kb/s
Width : 1 920 pixels
Height : 1 080 pixels
Display aspect ratio : 16:9
Frame rate mode : Constant
Frame rate : 29.970 (29970/1000) FPS
Color space : YUV
Chroma subsampling : 4:2:0
Bit depth : 8 bits
Scan type : Progressive
Bits/(Pixel*Frame) : 0.151
Stream size : 7.05 GiB (89%)
Writing library : x264 core 78 r1318 fe83a90
Encoding settings : cabac=1 / ref=4 / deblock=1:0:0 / analyse=0x3:0x133 / me=umh / subme=8 / psy=1 / psy_rd=1.0:0.0 / mixed_ref=1 / me_range=16 / chroma_me=1 / trellis=1 / 8x8dct=1 / cqm=0 / deadzone=21,11 / chroma_qp_offset=-2 / threads=6 / nr=0 / decimate=1 / mbaff=0 / constrained_intra=0 / bframes=3 / b_pyramid=0 / b_adapt=1 / b_bias=0 / direct=1 / wpredb=1 / keyint=250 / keyint_min=25 / scenecut=40 / rc_lookahead=40 / rc=2pass / mbtree=1 / bitrate=9411 / ratetol=1.0 / qcomp=0.60 / qpmin=10 / qpmax=51 / qpstep=4 / cplxblur=20.0 / qblur=0.5 / ip_ratio=1.40 / aq=1:1.00
Language : English
Default : No
Forced : No

Audio
ID : 2
Format : DTS
Format/Info : Digital Theater Systems
Codec ID : A_DTS
Duration : 1 h 49 min
Bit rate mode : Constant
Bit rate : 960 kb/s
Channel(s) : 6 channels
Channel layout : C L R Ls Rs LFE
Sampling rate : 48.0 kHz
Frame rate : 93.750 FPS (512 SPF)
Bit depth : 16 bits
Compression mode : Lossy
Stream size : 753 MiB (9%)
Language : English
Default : Yes
Forced : No

 

资源下载此资源下载价格为2金币,VIP免费,请先
所有资源都在百度网盘,如有链接失效、解压错误等、请联系管理微信:aimuvv
资源下载
下载价格2 金币
VIP免费
所有资源都在百度网盘,如有链接失效、解压错误等、请联系管理微信:aimuvv

原文链接:https://www.lgych.com/41186.html,转载请注明出处。

0

评论140

请先

  1. 感谢感谢感谢支持Hi
    1312411 2022-03-24 0
  2. 好资源非常感谢
    powccd 2022-03-25 0
  3. 感谢分享资源
    stef2 2022-03-27 0
  4. 非常精彩,感谢分享资源!
    doingbeyond 2022-03-30 0
  5. 谢谢分享
    Biggoxie 2022-04-04 0
  6. 非常感谢楼主
    二蛋啊啊啊 2022-04-05 0
  7. 感謝樓主分享
    kfpanda 2022-04-19 0
  8. 多谢分享
    CSLancelot 2022-05-26 0
  9. thank you for sharing
    bobiti2622 2022-05-29 0
  10. 谢谢分享! ........................
    blueych001 2022-05-31 0
  11. six
    螃蟹大叔 2022-06-01 0
  12. 谢谢分享! *************
    blueych001 2022-06-12 0
  13. 值得珍藏
    jgl888 2022-06-14 0
  14. 噢力给
    sjry 2022-06-17 0
  15. 谢谢分享
    dashe 2022-06-17 0
  16. 谢谢分享
    powccd 2022-06-17 0
  17. 谢谢分享
    awccn8888 2022-06-19 0
  18. 皮皮巴巴多谢分享!皮皮巴巴多谢分享!皮皮巴巴多谢分享!皮皮巴巴多谢分享!
    大力水手 2022-07-11 0
  19. 谢谢分享!
    user_zbz 2022-07-12 0
  20. 多谢分享好资源!
    wo94ty 1周前 0
1 5 6 7
华语蓝光合集 252部11T资源终极收藏!支持硬盘拷贝:https://www.lgych.com/cnbd/
显示验证码
没有账号? 注册  忘记密码?