Van Morrison - In Concert 2016《BDrip MKV 6.55G》

[视频信息]
视频编码: AVC1 - Native D3D9 DXVA Decoder(VLD) - Intel(R) UHD Graphics 770
输入格式: AVC1(24 bits)
输入尺寸: 1920 × 1080(1.78:1)
输出格式: dxva
输出尺寸: 1920 × 1080(1.78:1)
帧率: 29.97
BitRate: 未知

[音频信息]
音频编码: DTS(0x2001) - FFmpegMininum64.dll(dca)
采样率: 48000 -> 48000 Hz
位率: 24 -> 16 位
声道数: 6 -> 2 声道
Bitrate: 1509 kbps


General
Unique ID : 77797750941415009559455096603210689722 (0x3A874D43B5778D95C804C184AAD82CBA)
Complete name : Y:\VAN-2016-6.55\Van Morrison - In Concert (2016)\Van Morrison - In Concert (2016).mkv
Format : Matroska
Format version : Version 4
File size : 6.56 GiB
Duration : 1 h 15 min
Overall bit rate mode : Variable
Overall bit rate : 12.4 Mb/s
Movie name : Van Morrison - In Concert-(2016)-Smaddy
Encoded date : UTC 2018-08-13 05:25:27
Writing application : mkvmerge v24.0.0 ('Beyond The Pale') 64-bit
Writing library : libebml v1.3.6 + libmatroska v1.4.9

Video
ID : 1
Format : AVC
Format/Info : Advanced Video Codec
Format profile : High@L4.1
Format settings : CABAC / 4 Ref Frames
Format settings, CABAC : Yes
Format settings, Reference fra : 4 frames
Codec ID : V_MPEG4/ISO/AVC
Duration : 1 h 15 min
Bit rate : 9 300 kb/s
Width : 1 920 pixels
Height : 1 080 pixels
Display aspect ratio : 16:9
Frame rate mode : Constant
Frame rate : 29.970 (30000/1001) FPS
Color space : YUV
Chroma subsampling : 4:2:0
Bit depth : 8 bits
Scan type : Progressive
Bits/(Pixel*Frame) : 0.150
Stream size : 4.94 GiB (75%)
Title : English
Writing library : x264 core 155 r2901 7d0ff22
Encoding settings : cabac=1 / ref=4 / deblock=1:0:0 / analyse=0x3:0x113 / me=umh / subme=8 / psy=1 / psy_rd=1.00:0.00 / mixed_ref=1 / me_range=16 / chroma_me=1 / trellis=1 / 8x8dct=1 / cqm=0 / deadzone=21,11 / fast_pskip=1 / chroma_qp_offset=-2 / threads=12 / lookahead_threads=2 / sliced_threads=0 / nr=0 / decimate=1 / interlaced=0 / bluray_compat=0 / constrained_intra=0 / bframes=3 / b_pyramid=2 / b_adapt=1 / b_bias=0 / direct=3 / weightb=1 / open_gop=0 / weightp=2 / keyint=300 / keyint_min=30 / scenecut=40 / intra_refresh=0 / rc_lookahead=50 / rc=2pass / mbtree=1 / bitrate=9300 / ratetol=1.0 / qcomp=0.60 / qpmin=0 / qpmax=69 / qpstep=4 / cplxblur=20.0 / qblur=0.5 / ip_ratio=1.40 / aq=1:1.00
Language : English
Default : Yes
Forced : No

Audio #1
ID : 2
Format : DTS
Format/Info : Digital Theater Systems
Codec ID : A_DTS
Duration : 1 h 15 min
Bit rate mode : Constant
Bit rate : 1 509 kb/s
Channel(s) : 6 channels
Channel layout : C L R Ls Rs LFE
Sampling rate : 48.0 kHz
Frame rate : 93.750 FPS (512 SPF)
Bit depth : 24 bits
Compression mode : Lossy
Stream size : 820 MiB (12%)
Title : English
Language : English
Default : Yes
Forced : No

Audio #2
ID : 3
Format : FLAC
Format/Info : Free Lossless Audio Codec
Codec ID : A_FLAC
Duration : 1 h 15 min
Bit rate mode : Variable
Bit rate : 1 547 kb/s
Channel(s) : 2 channels
Channel layout : L R
Sampling rate : 48.0 kHz
Frame rate : 11.719 FPS (4096 SPF)
Bit depth : 24 bits
Compression mode : Lossless
Stream size : 841 MiB (13%)
Title : English
Writing library : libFLAC 1.2.1 (UTC 2007-09-17)
Language : English
Default : No
Forced : No

Menu
00:00:00.000 : en:00:00:00.000
00:03:06.853 : en:00:03:06.853
00:07:29.949 : en:00:07:29.949
00:11:30.323 : en:00:11:30.323
00:16:06.399 : en:00:16:06.399
00:18:48.995 : en:00:18:48.995
00:23:22.401 : en:00:23:22.401
00:28:39.084 : en:00:28:39.084
00:32:17.169 : en:00:32:17.169
00:36:31.423 : en:00:36:31.423
00:40:20.151 : en:00:40:20.151
00:45:31.195 : en:00:45:31.195
00:49:10.948 : en:00:49:10.948
00:53:13.223 : en:00:53:13.223
00:56:40.430 : en:00:56:40.430
01:00:04.768 : en:01:00:04.768
01:04:25.628 : en:01:04:25.628
01:08:10.053 : en:01:08:10.053

资源下载
下载价格10 金币
VIP免费
所有资源都在百度网盘,如有链接失效、解压错误等、请联系管理微信:lgychcom
原文链接:https://www.lgych.com/52868.html,转载请注明出处。
0

评论151

请先
  1. 感谢分享ob2
    2023-01-16 0
  2. 谢谢分享cvi
    2023-01-16 0
  3. 感谢分享kct
    2023-01-16 0
  4. 不错l5z
    2023-01-16 0
  5. 不错qtu
    2023-01-17 0
  6. 非常棒的资源pfz
    2023-01-18 0
  7. 感谢分享 :smile:
    tyjhw 2023-06-06 0
  8. 感谢分享好东东~
    JonesTOR 2023-07-29 0
  9. 感谢分享好资源
    JonesTOR 2023-07-29 0
  10. 支持发展越来越好dn3
    1周前 0
  11. 谢谢0va
    7天前 0
1 6 7 8
古巨基 惊奇世界 Amazing World Live 2011 香港红馆演唱会《ISO 22.7GB》
古巨基 惊奇世界 Amazing World Live 2011 香港红馆演唱会《ISO 22.7GB》
8分钟前 有人购买 去瞅瞅看
本站资源均可通过签到或者评论免费获取,被一些朋友批量注册账号玩坏了;关闭自由注册,后面需要注册账号的朋友,请自助购买邀请码注册
显示验证码
没有账号?注册  忘记密码?