yanaginagi - Live Tour 2018 「Natte」” Final Kouen Live Video《BDrip MKV 8.16G》

[视频信息]
视频编码: AVC1 - 内置 FFmpeg 解码器(h264, Thread Frame)
输入格式: AVC1(24 bits)
输入尺寸: 1920 × 1080(1.78:1)
输出格式: NV12(12 bits)
输出尺寸: 1920 × 1080(1.78:1)
帧率: 23.976
BitRate: 未知

[音频信息]
音频编码: FLAC Framed(0xf1ac) - OpenCodec(FLAC Decoder)
采样率: 48000 -> 48000 Hz
位率: 16 -> 16 位
声道数: 2 -> 2 声道
Bitrate: 1536 kbps

General
Unique ID : 143832950131290265241915986310109164871 (0x6C3537F3DBDDC391248D7FBACBF17547)
Complete name : Z:\“yanaginagi Live Tour 2018 「Natte」” Final Kouen Live Video [BD 1080p Hi10 x264 FLAC] [C61E3153].mkv\“yanaginagi Live Tour 2018 「Natte」” Final Kouen Live Video [BD 1080p Hi10 x264 FLAC] [C61E3153].mkv
Format : Matroska
Format version : Version 4
File size : 8.17 GiB
Duration : 2 h 10 min
Overall bit rate mode : Variable
Overall bit rate : 8 950 kb/s
Movie name : "やなぎなぎ ライブツアー 2018「ナッテ」"ファイナル公演ライブ映像
Encoded date : UTC 2019-01-24 01:30:01
Writing application : mkvmerge v30.1.0 ('Forever And More') 64-bit
Writing library : libebml v1.3.6 + libmatroska v1.4.9

Video
ID : 1
Format : AVC
Format/Info : Advanced Video Codec
Format profile : High 10@L5.1
Format settings : CABAC / 16 Ref Frames
Format settings, CABAC : Yes
Format settings, Reference fra : 16 frames
Codec ID : V_MPEG4/ISO/AVC
Duration : 2 h 10 min
Bit rate : 7 996 kb/s
Width : 1 920 pixels
Height : 1 080 pixels
Display aspect ratio : 16:9
Frame rate mode : Constant
Frame rate : 23.976 (24000/1001) FPS
Color space : YUV
Chroma subsampling : 4:2:0
Bit depth : 10 bits
Scan type : Progressive
Bits/(Pixel*Frame) : 0.161
Stream size : 7.30 GiB (89%)
Writing library : x264 core 157 r2935 545de2f
Encoding settings : cabac=1 / ref=16 / deblock=1:0:0 / analyse=0x3:0x133 / me=umh / subme=10 / psy=1 / psy_rd=1.00:0.00 / mixed_ref=1 / me_range=24 / chroma_me=1 / trellis=2 / 8x8dct=1 / cqm=0 / deadzone=21,11 / fast_pskip=1 / chroma_qp_offset=-2 / threads=18 / lookahead_threads=3 / sliced_threads=0 / nr=0 / decimate=1 / interlaced=0 / bluray_compat=0 / constrained_intra=0 / bframes=8 / b_pyramid=2 / b_adapt=2 / b_bias=0 / direct=3 / weightb=1 / open_gop=0 / weightp=2 / keyint=240 / keyint_min=23 / scenecut=40 / intra_refresh=0 / rc_lookahead=60 / rc=crf / mbtree=1 / crf=19.5 / qcomp=0.60 / qpmin=0 / qpmax=69 / qpstep=4 / ip_ratio=1.40 / aq=1:1.00
Default : Yes
Forced : No

Audio
ID : 2
Format : FLAC
Format/Info : Free Lossless Audio Codec
Codec ID : A_FLAC
Duration : 2 h 10 min
Bit rate mode : Variable
Bit rate : 952 kb/s
Channel(s) : 2 channels
Channel layout : L R
Sampling rate : 48.0 kHz
Frame rate : 11.719 FPS (4096 SPF)
Bit depth : 16 bits
Compression mode : Lossless
Stream size : 890 MiB (11%)
Writing library : libFLAC 1.3.2 (UTC 2017-01-01)
Default : Yes
Forced : No

Menu
00:00:00.000 : :snowglobe
00:06:20.380 : :時間は窓の向こう側 (Jikan wa Mado no Mukougawa)
00:11:28.145 : :MC1
00:13:56.252 : :あなたはサキュレント (Anata wa Succulent)
00:17:57.993 : :スーパーヒーロー (super hero)
00:20:39.738 : :over and over
00:25:28.276 : :here and there
00:30:24.614 : :MC2
00:34:47.293 : :relaxin’soup feat. DJみそしるとMCごはん (relaxin' soup feat. DJ Misosiru & MC Gohan)
00:39:09.847 : :海を込めて (Umi no Komete)
00:43:18.846 : :間遠い未来 (Madoi Mirai)
00:47:42.359 : :behind
00:53:26.870 : :play of color
00:57:48.923 : :一切は物語 (Issai wa Monogatari)
01:03:21.964 : :瞑目の彼方 (Meimoku no Kanata)
01:08:08.751 : :MC3
01:21:10.073 : :無形のアウトライン (Mukei no Outline)
01:25:47.934 : :砂糖玉の月 (Satoudama no Tsuki)
01:30:32.093 : :目覚めの岸辺 (Mezame no Kishibe)
01:34:58.025 : :夜明けの光をあつめながら (Yoake no Hikari wo Atsume Nagara)
01:40:26.478 : :MC4
01:42:45.242 : :natte
01:45:12.139 : :MC5
01:46:05.150 : :春擬き (Harumodoki)
01:50:57.150 : :rooter's song
01:56:57.510 : :メルト -10th ANNIVESARY MIX-
02:02:27.298 : :MC6
02:04:31.464 : :ビードロ模様 (Vidro Moyou)
02:09:06.864 : :ENDING

 

资源下载此资源下载价格为10金币,VIP免费,请先
所有资源都在百度网盘,如有链接失效、解压错误等、请联系管理微信:aimuvv
资源下载
下载价格10 金币
VIP免费
所有资源都在百度网盘,如有链接失效、解压错误等、请联系管理微信:aimuvv

原文链接:https://www.lgych.com/42316.html,转载请注明出处。

0

评论199

请先

  1. 谢谢分享
    diyuzhihuo 2天前 0
1 8 9 10
华语蓝光合集 252部11T资源终极收藏!支持硬盘拷贝:https://www.lgych.com/cnbd/
显示验证码
没有账号? 注册  忘记密码?