Linkin Park - Live at O2 Berlin 2015 2160p 4K《HDTV MKV 22.2G》

[视频信息]
视频编码: HVC1 - Native D3D9 DXVA Decoder(VLD) - NVIDIA Quadro M1000M
输入格式: HVC1(24 bits)
输入尺寸: 3840 × 2160(1.85:1)
输出格式: dxva
输出尺寸: 3840 × 2160(1.85:1)
帧率: 50
BitRate: 未知

[音频信息]
音频编码: MPEG Audio(0x50) - 内置 FFmpeg 解码器(mp2float)
采样率: 48000 -> 48000 Hz
位率: 0 -> 16 位
声道数: 2 -> 2 声道
Bitrate: 0 kbps

General
Unique ID : 232243036324775744195906145661519956363 (0xAEB861BDDCEF0EA6A8532EFC26D4898B)
Complete name : Z:\Linkin.Park.Live.at.O2.Berlin.2015.2160p.mkv\Linkin.Park.Live.at.O2.Berlin.2015.2160p.mkv
Format : Matroska
Format version : Version 4
File size : 22.3 GiB
Duration : 1 h 41 min
Overall bit rate : 31.4 Mb/s
Encoded date : UTC 2015-08-21 14:35:49
Writing application : mkvmerge v8.3.0 ('Over the Horizon') 64bit
Writing library : libebml v1.3.1 + libmatroska v1.4.2

Video
ID : 1
Format : HEVC
Format/Info : High Efficiency Video Coding
Format profile : Main@L5.1@Main
Codec ID : V_MPEGH/ISO/HEVC
Duration : 1 h 41 min
Bit rate : 31.2 Mb/s
Width : 3 840 pixels
Height : 2 160 pixels
Display aspect ratio : 1.85:1
Frame rate mode : Constant
Frame rate : 50.000 FPS
Color space : YUV
Chroma subsampling : 4:2:0
Bit depth : 8 bits
Bits/(Pixel*Frame) : 0.075
Stream size : 22.1 GiB (99%)
Default : Yes
Forced : No

Audio
ID : 2
Format : MPEG Audio
Format version : Version 1
Format profile : Layer 2
Codec ID : A_MPEG/L2
Codec ID/Hint : MP2
Duration : 1 h 41 min
Bit rate mode : Constant
Bit rate : 192 kb/s
Channel(s) : 2 channels
Sampling rate : 48.0 kHz
Frame rate : 41.656 FPS (1152 SPF)
Compression mode : Lossy
Stream size : 139 MiB (1%)
Default : Yes
Forced : No

资源下载此资源下载价格为10金币,VIP免费,请先
所有资源都在百度网盘,如有链接失效、解压错误等、请联系管理微信:aimuvv
资源下载
下载价格10 金币
VIP免费
所有资源都在百度网盘,如有链接失效、解压错误等、请联系管理微信:aimuvv

原文链接:https://www.lgych.com/42655.html,转载请注明出处。

0

评论159

请先

  1. 谢谢分享ss
    huyiming249 2022-07-03 0
  2. 谢谢分享w
    971145 2022-07-03 0
  3. thanks!
    ifour60 2022-07-09 0
  4. 皮皮巴巴多谢分享!皮皮巴巴多谢分享!皮皮巴巴多谢分享!皮皮巴巴多谢分享!
    小小姐姐 2022-07-11 0
  5. 谢谢分享!
    user_zbz 4周前 0
  6. 多谢分享好资源!
    wo94ty 2周前 0
1 6 7 8
华语蓝光合集 252部11T资源终极收藏!支持硬盘拷贝:https://www.lgych.com/cnbd/
显示验证码
没有账号? 注册  忘记密码?