Adele One Night Only 2021 1080i HDTV DD 5.1《HDTV MKV 8.47G》

◎译  名 Adele One Night Only
◎片  名 Adele One Night Only
◎年  代 2021
◎产  地 美国
◎类  别 音乐
◎语  言 英语
◎上映日期 2021-11-14(美国)
◎IMDb评星  ★★★★★★★★✦☆
◎IMDb评分  8.3/10 from 473 users
◎IMDb链接  https://www.imdb.com/title/tt15711284/
◎豆瓣评星 ★★★★★
◎豆瓣评分 9.5/10 from 401 users
◎豆瓣链接 https://movie.douban.com/subject/35651968/
◎片  长 120分钟
◎演  员 阿黛尔 / Adele
奥普拉·温弗瑞 / Oprah Winfrey

◎标  签 Adele | 演唱会 | 2021 | 美国 | Live | 音乐 | CBS | 纪录片

曲目:
Hello
Easy On Me
Skyfall
I Drink Wine
Someone Like You
When We Were Young
Make You Feel My Love
Hold On
Rolling In The Deep
Love Is A Game

General
Unique ID : 56394831174663360859995835195981114791 (0x2A6D3FD91FAA9EBE2E706F04CBD52DA7)
Complete name : Adele One Night Only 2021 1080i HDTV DD 5.1 MPEG-2-RuTracker.mkv
Format : Matroska
Format version : Version 4
File size : 8.48 GiB
Duration : 1 h 28 min
Overall bit rate mode : Variable
Overall bit rate : 13.8 Mb/s
Encoded date : UTC 2021-11-21 04:02:06
Writing application : mkvmerge v61.0.0 ('So') 64-bit
Writing library : libebml v1.4.2 + libmatroska v1.6.4

Video
ID : 1
Format : MPEG Video
Format version : Version 2
Format profile : Main@High
Format settings : CustomMatrix / BVOP
Format settings, BVOP : Yes
Format settings, Matrix : Custom
Format settings, GOP : Variable
Format settings, picture structure : Frame
Codec ID : V_MPEG2
Codec ID/Info : MPEG 1 or 2 Video
Duration : 1 h 28 min
Bit rate mode : Variable
Bit rate : 13.4 Mb/s
Maximum bit rate : 80.0 Mb/s
Width : 1 920 pixels
Height : 1 080 pixels
Display aspect ratio : 16:9
Frame rate mode : Constant
Frame rate : 29.970 (30000/1001) FPS
Color space : YUV
Chroma subsampling : 4:2:0
Bit depth : 8 bits
Scan type : Interlaced
Scan order : Top Field First
Compression mode : Lossy
Bits/(Pixel*Frame) : 0.215
Time code of first frame : 00:00:00;00
Time code source : Group of pictures header
GOP, Open/Closed : Open
Stream size : 8.24 GiB (97%)
Language : English
Default : Yes
Forced : No
Color primaries : BT.709
Transfer characteristics : BT.709
Matrix coefficients : BT.709

Audio
ID : 2
Format : AC-3
Format/Info : Audio Coding 3
Commercial name : Dolby Digital
Codec ID : A_AC3
Duration : 1 h 28 min
Bit rate mode : Constant
Bit rate : 384 kb/s
Channel(s) : 6 channels
Channel layout : L R C LFE Ls Rs
Sampling rate : 48.0 kHz
Frame rate : 31.250 FPS (1536 SPF)
Compression mode : Lossy
Delay relative to video : 9 ms
Stream size : 242 MiB (3%)
Language : English
Service kind : Complete Main
Default : Yes
Forced : No

资源下载此资源仅限注册用户下载,请先
所有资源都在百度网盘,如有链接失效、解压错误等、请联系管理微信:aimuvv
资源下载
下载价格免费
所有资源都在百度网盘,如有链接失效、解压错误等、请联系管理微信:aimuvv

原文链接:https://www.lgych.com/43300.html,转载请注明出处。

7

评论441

请先

  1. 皮皮巴巴多谢分享!皮皮巴巴多谢分享!皮皮巴巴多谢分享!皮皮巴巴多谢分享!
    皮皮巴巴 2022-07-11 0
  2. 感谢分享
    张清雁123 4周前 0
  3. 感谢分享
    林阳123 4周前 0
  4. 谢谢分享,辛苦了
    sonysega59 4周前 0
  5. 谢谢分享
    laans 4周前 0
  6. 谢谢分享!
    user_zbz 4周前 0
  7. 谢谢分享,辛苦了
    lygd88 3周前 0
  8. 阿黛尔
    BESTCONCERT 3周前 0
  9. 感谢分享
    powccd 2周前 0
  10. 支持发布~
    JonesTOR 2周前 0
  11. 多谢分享好资源!
    wo94ty 2周前 0
  12. 感谢分享!
    a3247923 7天前 0
  13. 谢谢分享
    smartjoey 17小时前 0
1 20 21 22
华语蓝光合集 252部11T资源终极收藏!支持硬盘拷贝:https://www.lgych.com/cnbd/
显示验证码
没有账号? 注册  忘记密码?