Tom Petty And The Heartbreakers Runnin' Down A Dream 2007《Remux MKV 15.3G》

[视频信息]
视频编码: H264 - Native D3D9 DXVA Decoder(VLD) - NVIDIA Quadro M1000M
输入格式: H264(24 bits)
输入尺寸: 1920 × 1080(1.78:1)
输出格式: dxva
输出尺寸: 1920 × 1080(1.78:1)
帧率: 23.976
BitRate: 未知

[音频信息]
音频编码: HDMV LPCM(0x1) - Blu-ray LPCM Decoder
采样率: 48000 -> 48000 Hz
位率: 24 -> 16 位
声道数: 8 -> 2 声道
Bitrate: 9216 kbps

General
Complete name : Z:\Stomp Live (full) 2009\STOMP\BDMV\PLAYLIST\00000.mpls
Format : Blu-ray Playlist
File size : 492 Bytes
Duration : 1 h 49 min
Overall bit rate mode : Variable
Overall bit rate : 1 b/s

Video
ID : 4113 (0x1011)
Menu ID : 1 (0x1)
Format : AVC
Format/Info : Advanced Video Codec
Format profile : High@L4.1
Format settings : CABAC / 4 Ref Frames
Format settings, CABAC : Yes
Format settings, Reference fra : 4 frames
Codec ID : 27
Duration : 1 h 49 min
Bit rate mode : Variable
Bit rate : 12.9 Mb/s
Maximum bit rate : 38.0 Mb/s
Width : 1 920 pixels
Height : 1 080 pixels
Display aspect ratio : 16:9
Frame rate : 23.976 (24000/1001) FPS
Standard : NTSC
Color space : YUV
Chroma subsampling : 4:2:0
Bit depth : 8 bits
Scan type : Progressive
Bits/(Pixel*Frame) : 0.260
Stream size : 9.87 GiB
Color range : Limited
Color primaries : BT.709
Transfer characteristics : BT.709
Matrix coefficients : BT.709
format_identifier : HDMV
Source : 00000.m2ts

Audio
ID : 4352 (0x1100)
Menu ID : 1 (0x1)
Format : PCM
Format settings : Big / Signed
Muxing mode : Blu-ray
Codec ID : 128
Duration : 1 h 49 min
Bit rate mode : Constant
Bit rate : 9 216 kb/s
Channel(s) : 8 channels
Channel layout : L R C Ls Rs Lb Rb LFE
Sampling rate : 48.0 kHz
Bit depth : 24 bits
Stream size : 7.05 GiB
Language : English
format_identifier : HDMV
Source : 00000.m2ts

Menu
00:00:00.000 : Chapter 1
00:01:29.089 : Chapter 2
00:11:08.668 : Chapter 3
00:14:51.891 : Chapter 4
00:26:25.584 : Chapter 5
00:30:04.219 : Chapter 6
00:35:18.116 : Chapter 7
00:40:28.426 : Chapter 8
00:44:09.855 : Chapter 9
00:49:48.986 : Chapter 10
00:55:50.347 : Chapter 11
00:57:11.428 : Chapter 12
01:02:24.741 : Chapter 13
01:07:30.046 : Chapter 14
01:16:02.558 : Chapter 15
01:19:27.804 : Chapter 16
01:22:53.385 : Chapter 17
01:28:10.285 : Chapter 18
01:37:49.947 : Chapter 19
01:47:45.834 : Chapter 20

资源下载此资源下载价格为10金币,VIP免费,请先
所有资源都在百度网盘,如有链接失效、解压错误等、请联系管理微信:aimuvv
资源下载
下载价格10 金币
VIP免费
所有资源都在百度网盘,如有链接失效、解压错误等、请联系管理微信:aimuvv

原文链接:https://www.lgych.com/43313.html,转载请注明出处。

0

评论115

请先

  1. 谢谢分享
    hymhym 2022-06-30 0
  2. 谢谢分享dd
    huyiming249 2022-06-30 0
  3. 谢谢分享dd
    971145 2022-06-30 0
  4. 谢谢分享。
    hym9711 2022-07-02 0
  5. 谢谢分享。
    hymhym 2022-07-02 0
  6. 谢谢分享L
    huyiming249 2022-07-02 0
  7. 谢谢分享V
    971145 2022-07-02 0
  8. 谢谢分享
    zcd2kk 2022-07-09 0
  9. 谢谢分享
    andyzh 2022-07-09 0
  10. 皮皮巴巴多谢分享!皮皮巴巴多谢分享!皮皮巴巴多谢分享!皮皮巴巴多谢分享!
    皮皮巴巴 2022-07-11 0
  11. 谢谢分享!
    user_zbz 4周前 0
  12. 多谢分享好资源!
    wo94ty 2周前 0
1 4 5 6
华语蓝光合集 252部11T资源终极收藏!支持硬盘拷贝:https://www.lgych.com/cnbd/
显示验证码
没有账号? 注册  忘记密码?