Justin Timberlake - Live at M S G 2007 BluRay 1080p DTS x264《Remux MKV 19.5G》

[视频信息]
视频编码: AVC1 - 内置 FFmpeg 解码器(h264, Thread Frame)
输入格式: AVC1(24 bits)
输入尺寸: 1920 × 1080(1.78:1)
输出格式: NV12(12 bits)
输出尺寸: 1920 × 1080(1.78:1)
帧率: 29.97
BitRate: 未知

[音频信息]
音频编码: DTS(0x2001) - FFmpegMininum64.dll(dca)
采样率: 48000 -> 48000 Hz
位率: 0 -> 16 位
声道数: 6 -> 2 声道
Bitrate: 1536 kbps

General
Unique ID : 211929906473707485637115591255475416704 (0x9F70371DD3FB39299C05DBD57DB4EE80)
Complete name : I:\JUS-2007-19.5\Justin.Timberlake-Live.at.M.S.G.2007 BluRay.1080p.DTSx.264.dxva-EuReKa\J.T.at.M.S.G.BR.dxva.PATCHED.mkv
Format : Matroska
Format version : Version 1
File size : 19.4 GiB
Duration : 2 h 14 min
Overall bit rate : 20.7 Mb/s
Encoded date : UTC 2008-02-24 09:37:46
Writing application : mkvmerge v2.1.0 ('Another Place To Fall') built on Aug 19 2007 13:40:07
Writing library : libebml v0.7.7 + libmatroska v0.8.1

Video
ID : 1
Format : AVC
Format/Info : Advanced Video Codec
Format profile : High@L4.1
Format settings : CABAC / 4 Ref Frames
Format settings, CABAC : Yes
Format settings, Reference fra : 4 frames
Codec ID : V_MPEG4/ISO/AVC
Duration : 2 h 14 min
Bit rate : 18.7 Mb/s
Width : 1 920 pixels
Height : 1 080 pixels
Display aspect ratio : 16:9
Frame rate mode : Constant
Frame rate : 29.970 FPS
Color space : YUV
Chroma subsampling : 4:2:0
Bit depth : 8 bits
Scan type : Progressive
Bits/(Pixel*Frame) : 0.302
Stream size : 17.6 GiB (91%)
Title : x264 - crf18
Writing library : x264 core 58 svn-736M
Encoding settings : cabac=1 / ref=4 / deblock=1:-2:-2 / analyse=0x3:0x113 / me=umh / subme=7 / me-prepass=0 / brdo=1 / mixed_ref=1 / me_range=16 / chroma_me=1 / trellis=0 / 8x8dct=1 / cqm=0 / deadzone=6,4 / chroma_qp_offset=0 / threads=3 / nr=0 / decimate=0 / mbaff=0 / bframes=3 / b_pyramid=1 / b_adapt=1 / b_bias=0 / direct=1 / wpredb=1 / bime=1 / keyint=250 / keyint_min=25 / scenecut=40(pre) / rc=crf / crf=22.0 / rceq='blurCplx^(1-qComp)' / qcomp=0.71 / qpmin=10 / qpmax=51 / qpstep=4 / ip_ratio=1.40 / pb_ratio=1.30 / aq=1:0.5:13.0
Language : English
Default : Yes
Forced : No

Audio
ID : 2
Format : DTS
Format/Info : Digital Theater Systems
Codec ID : A_DTS
Duration : 2 h 14 min
Bit rate mode : Constant
Bit rate : 1 510 kb/s
Channel(s) : 6 channels
Channel layout : C L R Ls Rs LFE
Sampling rate : 48.0 kHz
Frame rate : 93.750 FPS (512 SPF)
Bit depth : 24 bits
Compression mode : Lossy
Stream size : 1.41 GiB (7%)
Title : DTS - 1536 kbit/sec
Language : English
Default : Yes
Forced : No

Menu #1
00:00:00.000 : en:Intro
00:06:05.000 : en:Futuresex/Lovesounds
00:10:57.000 : en:Like I Love You
00:15:55.000 : en:My Love
00:26:19.000 : en:Senorita
00:31:43.000 : en:Sexy Ladies
00:36:47.000 : en:Until The End of Time
00:43:31.000 : en:What Goes Around
00:53:14.000 : en:Chop Me Up
00:59:29.000 : en:Rock Your Body
01:04:53.000 : en:Gone (Medley)
01:08:19.000 : en:Take It From Here (Medley)
01:11:46.000 : en:Last Night (Medley)
01:15:05.000 : en:Pies Damn Girl
01:21:36.000 : en:Summer Love
01:26:05.000 : en:Losing My Way
01:33:40.000 : en:Cry Me A River
01:38:21.000 : en:Love Stoned
01:46:32.000 : en:SexyBack
01:58:10.000 : en:(All Over Again) Another Song
02:06:21.000 : en:Bitterwsweet Symphony

Menu #2
00:00:00.000 : en:Intro
00:06:05.000 : en:Futuresex/Lovesounds
00:10:57.000 : en:Like I Love You
00:15:55.000 : en:My Love
00:26:19.000 : en:Senorita
00:31:43.000 : en:Sexy Ladies
00:36:47.000 : en:Until The End of Time
00:43:31.000 : en:What Goes Around
00:53:14.000 : en:Chop Me Up
00:59:29.000 : en:Rock Your Body
01:04:53.000 : en:Gone (Medley)
01:08:19.000 : en:Take It From Here (Medley)
01:11:46.000 : en:Last Night (Medley)
01:15:05.000 : en:Pies Damn Girl
01:21:36.000 : en:Summer Love
01:26:05.000 : en:Losing My Way
01:33:40.000 : en:Cry Me A River
01:38:21.000 : en:Love Stoned
01:46:32.000 : en:SexyBack
01:58:10.000 : en:(All Over Again) Another Song
02:06:21.000 : en:Bitterwsweet Symphony

 

资源下载此资源下载价格为10金币,VIP免费,请先
所有资源都在百度网盘,如有链接失效、解压错误等、请联系管理微信:aimuvv
资源下载
下载价格10 金币
VIP免费
所有资源都在百度网盘,如有链接失效、解压错误等、请联系管理微信:aimuvv

原文链接:https://www.lgych.com/41568.html,转载请注明出处。

0

评论125

请先

  1. 謝謝分享!!!
    Alvin1220 2022-03-17 0
  2. 好資源非常感謝!
    tclee 2022-03-17 0
  3. 多谢分享好资源
    romona 2022-03-18 0
  4. 多谢分享好资源
    pcduke 2022-03-18 0
  5. 谢谢楼主分享
    powccd 2022-03-21 0
  6. 感谢分享资源
    stef2 2022-03-27 0
  7. 谢谢分享
    Biggoxie 2022-04-02 0
  8. 分享謝謝分享
    18539251530 2022-05-19 0
  9. thanks!
    sotoc46990 2022-05-26 0
  10. 謝謝分享!非常棒的網站
    rerkicok 2022-05-27 0
  11. 多谢分享
    CSLancelot 2022-06-01 0
  12. 谢谢分享
    awccn8888 2022-06-20 0
  13. 谢谢分享 0
    971145 2022-07-04 0
  14. 谢谢分享15
    hym9711 2022-07-04 0
  15. 谢谢分享dfdf
    hymhym 2022-07-04 0
  16. 谢谢分
    huyiming249 2022-07-04 0
  17. 谢谢分享
    andyzh 2022-07-09 0
  18. 谢谢分享
    灰色系927 2022-07-09 0
  19. 皮皮巴巴多谢分享!皮皮巴巴多谢分享!皮皮巴巴多谢分享!皮皮巴巴多谢分享!
    大力水手 2022-07-11 0
  20. 多谢分享好资源!
    wo94ty 1周前 0
1 4 5 6
华语蓝光合集 252部11T资源终极收藏!支持硬盘拷贝:https://www.lgych.com/cnbd/
显示验证码
没有账号? 注册  忘记密码?