元老级重金属乐队铁娘子最新专辑附赠蓝光原盘 Iron Maiden - Senjutsu 2021《BDMV 21.3G》

1 The Writing On The Wall Music Video
2 SFX Video
3 The Making Of 'The Writing On The Wall"

DISC INFO:

Disc Title:     Iron Maiden - Senjutsu (BluRay)
Disc Size:      22 909 552 706 bytes
Protection:     AACS
BD-Java:        No
BDInfo:         0.5.8

PLAYLIST REPORT:

Name:                   00000.MPLS
Length:                 0:07:26.625 (h:m:s.ms)
Size:                   2 437 343 232 bytes
Total Bitrate:          43,66 Mbps

VIDEO:

Codec                   Bitrate             Description
-----                   -------             -----------
MPEG-4 AVC Video        34810 kbps          1080p / 24 fps / 16:9 / High Profile 4.1

AUDIO:

Codec                           Language        Bitrate         Description
-----                           --------        -------         -----------
LPCM Audio                      English         2304 kbps       2.0 / 48 kHz / 2304 kbps / 24-bit
DTS-HD Master Audio             English         4364 kbps       5.1 / 48 kHz / 4364 kbps / 24-bit (DTS Core: 5.1 / 48 kHz / 1509 kbps / 24-bit)

FILES:

Name            Time In         Length          Size            Total Bitrate
----            -------         ------          ----            -------------
00000.M2TS      0:00:00.000     0:00:01.041     1 124 352       8 635
00001.M2TS      0:00:01.041     0:07:24.083     2 435 364 864   43 872
00300.M2TS      0:07:25.125     0:00:01.500     854 016         4 555

CHAPTERS:

Number          Time In         Length          Avg Video Rate  Max 1-Sec Rate  Max 1-Sec Time  Max 5-Sec Rate  Max 5-Sec Time  Max 10Sec Rate  Max 10Sec Time  Avg Frame Size  Max Frame Size  Max Frame Time
------          -------         ------          --------------  --------------  --------------  --------------  --------------  --------------  --------------  --------------  --------------  --------------
1               0:00:00.000     0:07:25.125     34 927 kbps     43 372 kbps     00:05:15.000    39 015 kbps     00:05:04.750    38 292 kbps     00:04:59.833    181 894 bytes   565 584 bytes   00:00:49.291
2               0:07:25.125     0:00:01.500     70 kbps         77 kbps         00:07:25.166    0 kbps          00:00:00.000    0 kbps          00:00:00.000    377 bytes       2 431 bytes     00:07:25.875

STREAM DIAGNOSTICS:

File            PID             Type            Codec           Language                Seconds                 Bitrate                 Bytes           Packets
----            ---             ----            -----           --------                --------------          --------------          -------------   -----
00000.M2TS      4113 (0x1011)   0x1B            AVC                                     0,875                   4 737                   518 117         2 823
00000.M2TS      4352 (0x1100)   0x80            LPCM            eng (English)           0,875                   2 759                   301 796         1 672
00000.M2TS      4353 (0x1101)   0x86            DTS-HD MA       eng (English)           0,875                   1 864                   203 840         1 274
00001.M2TS      4113 (0x1011)   0x1B            AVC                                     443,917                 35 013                  1 942 837 910   10 565 043
00001.M2TS      4352 (0x1100)   0x80            LPCM            eng (English)           443,917                 2 311                   128 250 304     710 528
00001.M2TS      4353 (0x1101)   0x86            DTS-HD MA       eng (English)           443,917                 4 379                   242 974 128     1 393 738
00300.M2TS      4113 (0x1011)   0x1B            AVC                                     1,375                   91                      15 637          96
00300.M2TS      4352 (0x1100)   0x86            DTS-HD MA       eng (English)           1,375                   1 718                   295 360         1 846
00300.M2TS      4353 (0x1101)   0x80            LPCM            eng (English)           1,375                   2 520                   433 200         2 400

资源下载
下载价格20 金币
终身VIP免费
所有资源都在百度网盘,如有链接失效、解压错误等、请联系管理微信:lgychcom
原文链接:https://www.lgych.com/43517.html,转载请注明出处。
1

评论176

请先
  1. 谢谢楼主分享gon
    2023-01-16 0
  2. 感谢分享zu3
    2023-01-16 0
  3. 感谢分享zhm
    2023-01-16 0
  4. 谢谢楼主分享nyo
    2023-01-16 0
  5. 好资源感谢分享04l
    2023-01-16 0
  6. 不错jlx
    2023-01-16 0
  7. 谢谢分享6ci
    2023-01-16 0
  8. 好资源感谢分享sun
    2023-01-17 0
  9. 谢谢楼主分享
    kg666666 2023-09-21 0
  10. 很棒的资源
    kg666666 2023-10-19 0
  11. 6666
    kg666666 2023-12-01 0
  12. 好资源感谢分享
    lishy72 2024-01-20 0
  13. 谢谢分享zph
    2周前 0
  14. 谢谢分享gom
    2周前 0
  15. 好资源25w
    2周前 0
1 7 8 9
张国荣拉阔演唱会 1998 [单文件版无拆分无字幕] [DVDrip MPG 2.37GB]
张国荣拉阔演唱会 1998 [单文件版无拆分无字幕] [DVDrip MPG 2.37GB]
5分钟前 有人购买 去瞅瞅看
本站资源均可通过签到或者评论免费获取,被一些朋友批量注册账号玩坏了;关闭自由注册,后面需要注册账号的朋友,请自助购买邀请码注册
显示验证码
没有账号?注册  忘记密码?