CHRONO CROSS Original Soundtrack Revival Disc 2019《Remux MKV 36.5G》

Chrono Cross Original Soundtrack Revival Disc [Blu-ray (BDM)] / ゲーム・ミュージック

1995年発売以降、累計出荷・ダウンロード販売本数550万本以上を記録している家庭用ゲームソフト「クロノ」シリーズ(クロノ・トリガー/クロノ・クロス)より、発売20周年を迎える『クロノ・クロス』のゲーム映像付きサウンドトラックが登場。 ■オープニングムービーを飾る名曲「CHRONO CROSS ~時の傷痕~」ほか、民族楽器やプログレッシブを絶妙に取り入れた唯一無二のサウンドはゲームファンのみならず音楽好きに必聴の名盤。 ■デジパック仕様の付属ブックレットには作曲家・光田康典氏によるライナーノーツを掲載。 ■ディスクを再生するだけでストーリーの名シーンや楽曲の思い出を気軽に「リバイバル」! パソコンやスマートフォンにも楽曲を取り込めるMP3音源付き。 家庭用Blu-ray機器で再生する高音質視聴に加え、収録曲はMP3圧縮データをRom本体に収録。Blu-ray対応機器(PlayStation(R)含む) や

General
Unique ID : 220534872050789498783924265041130706874 (0xA5E978ACC7D3A3E48328235D020457BA)
Complete name : Y:\CHRONO CROSS Original Soundtrack Revival Disc (2019)[SQEX-20068]\CHRONO CROSS Original Soundtrack Revival Disc_t01.mkv
Format : Matroska
Format version : Version 2
File size : 35.0 GiB
Duration : 3 h 3 min
Overall bit rate mode : Variable
Overall bit rate : 27.4 Mb/s
Movie name : CHRONO CROSS Original Soundtrack Revival Disc
Encoded date : UTC 2019-08-13 01:08:10
Writing application : MakeMKV v1.14.4 darwin(x64-release)
Writing library : libmakemkv v1.14.4 (1.3.5/1.4.7) darwin(x64-release)
Cover : Yes
Attachments : cover.jpg

Video
ID : 1
ID in the original source medi : 4113 (0x1011)
Format : AVC
Format/Info : Advanced Video Codec
Format profile : High@L4.1
Format settings : CABAC / 4 Ref Frames
Format settings, CABAC : Yes
Format settings, Reference fra : 4 frames
Codec ID : V_MPEG4/ISO/AVC
Duration : 3 h 3 min
Bit rate mode : Variable
Bit rate : 25.0 Mb/s
Maximum bit rate : 40.0 Mb/s
Width : 1 920 pixels
Height : 1 080 pixels
Display aspect ratio : 16:9
Frame rate mode : Constant
Frame rate : 29.970 (30000/1001) FPS
Color space : YUV
Chroma subsampling : 4:2:0
Bit depth : 8 bits
Scan type : MBAFF
Scan type, store method : Interleaved fields
Scan order : Top Field First
Bits/(Pixel*Frame) : 0.402
Stream size : 31.9 GiB (91%)
Language : English
Default : No
Forced : No
Original source medium : Blu-ray

Audio
ID : 2
ID in the original source medi : 4352 (0x1100)
Format : FLAC
Format/Info : Free Lossless Audio Codec
Codec ID : A_FLAC
Duration : 3 h 3 min
Bit rate mode : Variable
Bit rate : 2 412 kb/s
Channel(s) : 2 channels
Channel layout : L R
Sampling rate : 96.0 kHz
Frame rate : 11.719 FPS (8192 SPF)
Bit depth : 24 bits
Compression mode : Lossless
Stream size : 3.08 GiB (9%)
Title : Stereo
Writing library : MakeMKV v1.14.4 darwin(x64-release)
Language : Japanese
Default : Yes
Forced : No
Original source medium : Blu-ray

Menu
00:00:00.000 : en:Chapter 01
00:02:25.044 : en:Chapter 02
00:05:07.640 : en:Chapter 03
00:08:33.246 : en:Chapter 04
00:12:01.520 : en:Chapter 05
00:14:43.249 : en:Chapter 06
00:18:07.453 : en:Chapter 07
00:20:34.833 : en:Chapter 08
00:24:06.378 : en:Chapter 09
00:26:53.278 : en:Chapter 10
00:30:06.471 : en:Chapter 11
00:32:07.392 : en:Chapter 12
00:34:50.688 : en:Chapter 13
00:38:33.244 : en:Chapter 14
00:41:53.277 : en:Chapter 15
00:44:47.951 : en:Chapter 16
00:45:40.304 : en:Chapter 17
00:49:01.171 : en:Chapter 18
00:52:30.881 : en:Chapter 19
00:55:42.605 : en:Chapter 20
00:57:14.230 : en:Chapter 21
00:59:45.848 : en:Chapter 22
01:01:50.473 : en:Chapter 23
01:05:29.759 : en:Chapter 24
01:09:35.471 : en:Chapter 25
01:09:56.525 : en:Chapter 26
01:10:35.331 : en:Chapter 27
01:13:23.165 : en:Chapter 28
01:16:57.379 : en:Chapter 29
01:20:05.333 : en:Chapter 30
01:23:30.005 : en:Chapter 31
01:27:30.144 : en:Chapter 32
01:30:22.884 : en:Chapter 33
01:33:09.450 : en:Chapter 34
01:34:39.373 : en:Chapter 35
01:34:50.217 : en:Chapter 36
01:38:13.053 : en:Chapter 37
01:40:56.850 : en:Chapter 38
01:43:13.820 : en:Chapter 39
01:46:27.147 : en:Chapter 40
01:49:39.873 : en:Chapter 41
01:53:01.541 : en:Chapter 42
01:53:32.105 : en:Chapter 43
01:56:45.832 : en:Chapter 44
01:59:43.176 : en:Chapter 45
02:01:38.491 : en:Chapter 46
02:02:30.643 : en:Chapter 47
02:05:28.053 : en:Chapter 48
02:05:40.432 : en:Chapter 49
02:05:51.844 : en:Chapter 50
02:06:03.355 : en:Chapter 51
02:09:33.766 : en:Chapter 52
02:12:18.697 : en:Chapter 53
02:16:29.481 : en:Chapter 54
02:19:37.302 : en:Chapter 55
02:22:31.910 : en:Chapter 56
02:25:12.437 : en:Chapter 57
02:28:58.663 : en:Chapter 58
02:32:56.500 : en:Chapter 59
02:38:30.400 : en:Chapter 60
02:40:54.344 : en:Chapter 61
02:43:49.686 : en:Chapter 62
02:47:11.388 : en:Chapter 63
02:48:03.973 : en:Chapter 64
02:54:54.283 : en:Chapter 65
02:56:30.680 : en:Chapter 66
03:01:00.683 : en:Chapter 67

 

原文链接:https://www.lgych.com/51565.html,转载请注明出处。
0

评论201

请先
  1. 谢谢pbz
    2周前 0
1 9 10 11
王者天下 HI-FI天碟试听现场 [DVD ISO 3.44G]
王者天下 HI-FI天碟试听现场 [DVD ISO 3.44G]
5分钟前 有人购买 去瞅瞅看
显示验证码
没有账号?注册  忘记密码?