Roselia 2017-2018 LIVE BEST -Soweit《BDrip MKV 64.4G》

[视频信息]
视频编码: HVC1 - Native D3D9 DXVA Decoder(VLD) - Intel(R) UHD Graphics 770
输入格式: HVC1(24 bits)
输入尺寸: 1920 × 1080(1.78:1)
输出格式: dxva
输出尺寸: 1920 × 1080(1.78:1)
帧率: 29.97
BitRate: 未知

[音频信息]
音频编码: FLAC Framed(0xf1ac) - OpenCodec(FLAC Decoder)
采样率: 48000 -> 48000 Hz
位率: 24 -> 16 位
声道数: 2 -> 2 声道
Bitrate: 2304 kbps

General
Unique ID : 249055042405312953621287182482512560304 (0xBB5E41A33A370D52C80B4E74CF1440B0)
Complete name : Y:\Roselia 2017-2018 LIVE BEST -Soweit- [BDRip 1080p HEVC-10bit FLAC][TD-RAWS]\[TD-RAWS] Roselia 1st Live Rosenlied [BDRip 1080p HEVC-10bit FLAC].mkv
Format : Matroska
Format version : Version 4
File size : 10.8 GiB
Duration : 1 h 31 min
Overall bit rate mode : Variable
Overall bit rate : 16.8 Mb/s
Encoded date : UTC 2018-09-06 13:10:29
Writing application : mkvmerge v20.0.0 ('I Am The Sun') 64-bit
Writing library : libebml v1.3.5 + libmatroska v1.4.8

Video
ID : 1
Format : HEVC
Format/Info : High Efficiency Video Coding
Format profile : Main 10@L4.1@High
Codec ID : V_MPEGH/ISO/HEVC
Duration : 1 h 31 min
Bit rate : 15.1 Mb/s
Width : 1 920 pixels
Height : 1 080 pixels
Display aspect ratio : 16:9
Frame rate mode : Constant
Frame rate : 29.970 (30000/1001) FPS
Color space : YUV
Chroma subsampling : 4:2:0
Bit depth : 10 bits
Bits/(Pixel*Frame) : 0.244
Stream size : 9.72 GiB (90%)
Writing library : x265 2.6+9-gd71a3e318+19:[Windows][GCC 7.1.0][64 bit] Asuna 10bit
Encoding settings : rc=crf / crf=19.0000 / qcomp=0.65 / qpstep=4 / vbv-maxrate=40000 / vbv-bufsize=45000 / vbv-init=0.9 / crf-max=0.0 / crf-min=0.0 / aq-mode=1 / aq-strength=0.70 / cbqpoffs=-2 / crqpoffs=-2 / ipratio=1.40 / pbratio=1.20 / psy-rd=1.50 / psy-rdoq=1.00 / deblock=-1:-1 / ref=4 / bframes=6 / b-adapt=2 / bframe-bias=0 / b-pyramid / b-intra / weightp / weightb / min-keyint=1 / max-keyint=360 / rc-lookahead=70 / scenecut=40 / max-cu-size=32 / min-cu-size=8 / me=3 / subme=4 / merange=44 / rdoq-level=2 / rd=4 / rdpenalty=1 / ----- / cutree / no-sao / rect / no-amp / no-open-gop / wpp / no-pmode / no-pme / no-psnr / no-ssim / nr-intra=0 / nr-inter=0 / no-constrained-intra / no-strong-intra-smoothing / max-tu-size=32 / tu-inter-depth=2 / tu-intra-depth=2 / limit-tu=4 / qg-size=32 / qpmax=69 / qpmin=0 / ----- / cpuid=1173503 / frame-threads=3 / numa-pools=8 / log-level=2 / input-csp=1 / input-res=1920x1080 / interlace=0 / level-idc=0 / high-tier=1 / uhd-bd=0 / no-allow-non-conformance / no-repeat-headers / no-aud / no-hrd / info / hash=0 / no-temporal-layers / lookahead-slices=4 / no-intra-refresh / dynamic-rd=0.00 / no-ssim-rd / signhide / no-tskip / max-merge=3 / limit-refs=2 / limit-modes / temporal-mvp / no-analyze-src-pics / no-sao-non-deblock / no-early-skip / rskip / no-fast-intra / no-tskip-fast / no-cu-lossless / no-splitrd-skip / no-rd-refine / analysis-reuse-mode=0 / no-lossless / zone-count=0 / no-strict-cbr / no-rc-grain / no-const-vbv / sar=0 / overscan=0 / videoformat=5 / range=0 / colorprim=2 / transfer=2 / colormatrix=2 / chromaloc=0 / display-window=0 / max-cll=0,0 / min-luma=0 / max-luma=1023 / log2-max-poc-lsb=8 / vui-timing-info / vui-hrd-info / slices=1 / no-opt-qp-pps / no-opt-ref-list-length-pps / no-multi-pass-opt-rps / scenecut-bias=0.05 / no-opt-cu-delta-qp / no-aq-motion / no-hdr / no-hdr-opt / no-dhdr10-opt / analysis-reuse-level=5 / scale-factor=0 / refine-intra=0 / refine-inter=0 / refine-mv=0 / no-limit-sao / ctu-info=0 / no-lowpass-dct / refine-mv-type=0 / copy-pic=1
Default : Yes
Forced : No

Audio
ID : 2
Format : FLAC
Format/Info : Free Lossless Audio Codec
Codec ID : A_FLAC
Duration : 1 h 31 min
Bit rate mode : Variable
Bit rate : 1 671 kb/s
Channel(s) : 2 channels
Channel layout : L R
Sampling rate : 48.0 kHz
Frame rate : 11.719 FPS (4096 SPF)
Bit depth : 24 bits
Compression mode : Lossless
Stream size : 1.07 GiB (10%)
Writing library : libFLAC 1.2.1 (UTC 2007-09-17)
Default : Yes
Forced : No

Menu
00:00:00.000 : en:00:00:00.000
00:02:05.692 : en:00:02:05.692
00:06:24.117 : en:00:06:24.117
00:10:43.977 : en:00:10:43.977
00:15:18.551 : en:00:15:18.551
00:19:38.744 : en:00:19:38.744
00:23:02.281 : en:00:23:02.281
00:28:31.176 : en:00:28:31.176
00:37:01.986 : en:00:37:01.986
00:42:06.958 : en:00:42:06.958
00:42:41.426 : en:00:42:41.426
00:47:17.234 : en:00:47:17.234
00:58:21.865 : en:00:58:21.865
01:03:21.798 : en:01:03:21.798
01:16:38.761 : en:01:16:38.761
01:21:17.873 : en:01:21:17.873
01:23:19.661 : en:01:23:19.661
01:28:49.524 : en:01:28:49.524

资源下载
下载价格20 金币
VIP免费
所有资源都在百度网盘,如有链接失效、解压错误等、请联系管理微信:lgychcom
原文链接:https://www.lgych.com/51593.html,转载请注明出处。
1

评论243

请先
  1. 好资源3rs
    2周前 0
  2. 不错315
    2周前 0
  3. 非常感谢lry
    2周前 0
1 11 12 13
张学友 学友.经典 2019 世界巡回演唱会 香港站  Jacky Cheung A Classic Tour Finale Hong Kong 2019《Remux MKV 50.2G》
张学友 学友.经典 2019 世界巡回演唱会 香港站 Jacky Cheung A Classic Tour Finale Hong Kong 2019《Remux MKV 50.2G》
10分钟前 有人购买 去瞅瞅看
本站资源均可通过签到或者评论免费获取,被一些朋友批量注册账号玩坏了;关闭自由注册,后面需要注册账号的朋友,请自助购买邀请码注册
显示验证码
没有账号?注册  忘记密码?