Van Morrison & Joey DeFrancesco - San Francisco Jazz Center 2017《HDTV MKV 8.46G》

[视频信息]
视频编码: MPG2 - Native D3D9 DXVA Decoder(VLD) - Intel(R) UHD Graphics 770
输入格式: MPG2(12 bits)
输入尺寸: 1920 × 1080(1.78:1)
输出格式: dxva
输出尺寸: 1920 × 1080(1.78:1)
帧率: 29.97
BitRate: 未知

[音频信息]
音频编码: AC3(0x2000) - 内置 FFmpeg 解码器(ac3)
采样率: 48000 -> 48000 Hz
位率: 0 -> 16 位
声道数: 6 -> 2 声道
Bitrate: 384 kbps

General
Unique ID : 106153583119425682899647759932221181719 (0x4FDC6FBAC0B1465421CEC123BF324F17)
Complete name : Y:\Van Morrison & Joey DeFrancesco - San Francisco Jazz Center 2017.mkv\Van Morrison & Joey DeFrancesco - San Francisco Jazz Center 2017.mkv
Format : Matroska
Format version : Version 4
File size : 8.47 GiB
Duration : 1 h 32 min
Overall bit rate mode : Variable
Overall bit rate : 13.1 Mb/s
Writing application : Lavf56.25.101
Writing library : Lavf56.25.101

Video
ID : 1
Format : MPEG Video
Format version : Version 2
Format profile : Main@High
Format settings : BVOP
Format settings, BVOP : Yes
Format settings, Matrix : Default
Format settings, GOP : Variable
Format settings, picture struc : Frame
Codec ID : V_MPEG2
Codec ID/Info : MPEG 1 or 2 Video
Duration : 1 h 32 min
Bit rate mode : Variable
Bit rate : 12.5 Mb/s
Maximum bit rate : 80.0 Mb/s
Width : 1 920 pixels
Height : 1 080 pixels
Display aspect ratio : 16:9
Frame rate mode : Constant
Frame rate : 29.970 (30000/1001) FPS
Color space : YUV
Chroma subsampling : 4:2:0
Bit depth : 8 bits
Scan type : Interlaced
Scan order : Top Field First
Compression mode : Lossy
Bits/(Pixel*Frame) : 0.201
Time code of first frame : 00:00:00;06
Time code source : Group of pictures header
Stream size : 8.05 GiB (95%)
Default : No
Forced : No

Audio
ID : 2
Format : AC-3
Format/Info : Audio Coding 3
Commercial name : Dolby Digital
Codec ID : A_AC3
Duration : 1 h 32 min
Bit rate mode : Constant
Bit rate : 384 kb/s
Channel(s) : 6 channels
ChannelLayout_Original : L R C LFE Ls Rs
Sampling rate : 48.0 kHz
Frame rate : 31.250 FPS (1536 SPF)
Compression mode : Lossy
Delay relative to video : 24 ms
Stream size : 254 MiB (3%)
Language : English
Service kind : Complete Main
Default : Yes
Forced : No

 

资源下载
下载价格5 金币
终身VIP免费
所有资源都在百度网盘,如有链接失效、解压错误等、请联系管理微信:lgychcom
原文链接:https://www.lgych.com/52874.html,转载请注明出处。
0

评论166

请先
  1. 谢谢zfq
    1周前 0
  2. 谢谢分享vr6
    1周前 0
  3. 好资源pv8
    1周前 0
  4. 好资源fz8
    1周前 0
  5. 不错lk6
    1周前 0
  6. 支持发展越来越好gu3
    7天前 0
1 7 8 9
黄伟文作品展 Concert YY 2012 香港红馆演唱会《BDrip MKV 34.9G》
黄伟文作品展 Concert YY 2012 香港红馆演唱会《BDrip MKV 34.9G》
1分钟前 有人购买 去瞅瞅看
本站资源均可通过签到或者评论免费获取,被一些朋友批量注册账号玩坏了;关闭自由注册,后面需要注册账号的朋友,请自助购买邀请码注册
显示验证码
没有账号?注册  忘记密码?