漫游·张靓颖沉浸式虚拟音乐会 完整版 Roaming Jane Zhang Immersive Virtual Concert 2021《WEB-DL MP4 13.5GB》

General : [漫游·张靓颖沉浸式虚拟音乐会·完整版].Roaming·Jane.Zhang.Immersive.Virtual.Concert.2021.1080p.WEB-DL.AVC.AAC-QHstudIo
Format : MPEG-4 at 23.7 Mb/s
File Size : 13.5 GiB
Runtime : 01:21:26:21
Video : AVC at 23.5 Mb/s High@L4
Resolution : 1920x1080 (1.778)
Frame Rate : 25.000 fps
Audio : AAC LC 175 kb/s 2 channel(s), 48.0 kHz

General
Complete name : I:\[漫游·张靓颖沉浸式虚拟音乐会·完整版].Roaming·Jane.Zhang.Immersive.Virtual.Concert.2021.1080p.WEB-DL.AVC.AAC-QHstudIo\[漫游·张靓颖沉浸式虚拟音乐会·完整版].Roaming·Jane.Zhang.Immersive.Virtual.Concert.2021.1080p.WEB-DL.AVC.AAC-QHstudIo.mp4
Format : MPEG-4
Format profile : Base Media
Codec ID : isom (isom/iso2/avc1/mp41)
File size : 13.5 GiB
Duration : 1 h 21 min
Overall bit rate : 23.7 Mb/s
Writing application : Lavf59.2.100

Video
ID : 1
Format : AVC
Format/Info : Advanced Video Codec
Format profile : High@L4
Format settings : CABAC / 4 Ref Frames
Format settings, CABAC : Yes
Format settings, Reference fra : 4 frames
Codec ID : avc1
Codec ID/Info : Advanced Video Coding
Duration : 1 h 21 min
Source duration : 1 h 21 min
Bit rate : 23.5 Mb/s
Width : 1 920 pixels
Height : 1 080 pixels
Display aspect ratio : 16:9
Frame rate mode : Constant
Frame rate : 25.000 FPS
Color space : YUV
Chroma subsampling : 4:2:0
Bit depth : 8 bits
Scan type : Progressive
Bits/(Pixel*Frame) : 0.454
Stream size : 13.4 GiB (99%)
Source stream size : 13.4 GiB (99%)
Writing library : x264 core 148 r2795 aaa9aa8
Encoding settings : cabac=1 / ref=3 / deblock=1:0:0 / analyse=0x3:0x113 / me=hex / subme=7 / psy=1 / psy_rd=1.00:0.00 / mixed_ref=1 / me_range=16 / chroma_me=1 / trellis=1 / 8x8dct=1 / cqm=0 / deadzone=21,11 / fast_pskip=1 / chroma_qp_offset=-2 / threads=34 / lookahead_threads=5 / sliced_threads=0 / nr=0 / decimate=1 / interlaced=0 / bluray_compat=0 / constrained_intra=0 / bframes=3 / b_pyramid=2 / b_adapt=1 / b_bias=0 / direct=1 / weightb=1 / open_gop=0 / weightp=2 / keyint=250 / keyint_min=25 / scenecut=40 / intra_refresh=0 / rc_lookahead=40 / rc=crf / mbtree=1 / crf=10.0 / qcomp=0.60 / qpmin=0 / qpmax=69 / qpstep=4 / ip_ratio=1.40 / aq=1:1.00
mdhd_Duration : 4886843
Codec configuration box : avcC

Audio
ID : 2
Format : AAC LC
Format/Info : Advanced Audio Codec Low Complexity
Codec ID : mp4a-40-2
Duration : 1 h 21 min
Bit rate mode : Constant
Bit rate : 175 kb/s
Channel(s) : 2 channels
Channel layout : L R
Sampling rate : 48.0 kHz
Frame rate : 46.875 FPS (1024 SPF)
Compression mode : Lossy
Stream size : 102 MiB (1%)
Default : Yes
Alternate group : 1

资源下载
下载价格10 金币
VIP免费
所有资源都在百度网盘,如有链接失效、解压错误等、请联系管理微信:lgychcom
原文链接:https://www.lgych.com/56624.html,转载请注明出处。
0

评论302

请先
  1. 不错8uj
    2周前 0
  2. 支持发展越来越好a9f
    2周前 0
1 14 15 16
2024维也纳新年音乐会 Vienna New Year's Concert 2024 [HDTV MKV 5.63GB]
2024维也纳新年音乐会 Vienna New Year's Concert 2024 [HDTV MKV 5.63GB]
10分钟前 有人购买 去瞅瞅看
显示验证码
没有账号?注册  忘记密码?