Steven Wilson Get All You Deserve 2012《BDrip MKV 9.84G》

[视频信息]
视频编码: AVC1 - 内置 FFmpeg 解码器(h264, Thread Frame)
输入格式: AVC1(24 bits)
输入尺寸: 1920 × 1080(1.78:1)
输出格式: NV12(12 bits)
输出尺寸: 1920 × 1080(1.78:1)
帧率: 23.976
BitRate: 未知

[音频信息]
音频编码: DTS(0x2001) - FFmpegMininum64.dll(dca)
采样率: 48000 -> 96000 Hz
位率: 0 -> 16 位
声道数: 6 -> 2 声道
Bitrate: 3018 kbps

General
Unique ID : 174835519863363713183279753952437978491 (0x838818A76D5C3BD2BF76BFEDA6AFC57B)
Complete name : I:\STE-2012-9.84\Steven.Wilson.Get.All.You.Deserve.2012.1080p.MBluRay.x264-SEMTEX-(RiPSaLoT)\Steven.Wilson.Get.All.You.Deserve.2012.1080p.MBluRay.x264-SEMTEX..mkv
Format : Matroska
Format version : Version 2
File size : 9.84 GiB
Duration : 2 h 11 min
Overall bit rate : 10.7 Mb/s
Encoded date : UTC 2012-09-27 03:01:54
Writing application : mkvmerge v5.8.0 ('No Sleep / Pillow') built on Sep 2 2012 15:37:04
Writing library : libebml v1.2.3 + libmatroska v1.3.0

Video
ID : 1
Format : AVC
Format/Info : Advanced Video Codec
Format profile : High@L4.1
Format settings : CABAC / 4 Ref Frames
Format settings, CABAC : Yes
Format settings, Reference fra : 4 frames
Codec ID : V_MPEG4/ISO/AVC
Duration : 2 h 11 min
Bit rate : 9 214 kb/s
Width : 1 920 pixels
Height : 1 080 pixels
Display aspect ratio : 16:9
Frame rate mode : Constant
Frame rate : 23.976 (24000/1001) FPS
Color space : YUV
Chroma subsampling : 4:2:0
Bit depth : 8 bits
Scan type : Progressive
Bits/(Pixel*Frame) : 0.185
Stream size : 8.26 GiB (84%)
Writing library : x264 core 128 r2216 198a7ea
Encoding settings : cabac=1 / ref=4 / deblock=1:0:0 / analyse=0x3:0x133 / me=umh / subme=7 / psy=1 / psy_rd=1.00:0.00 / mixed_ref=1 / me_range=16 / chroma_me=1 / trellis=1 / 8x8dct=1 / cqm=0 / deadzone=21,11 / fast_pskip=0 / chroma_qp_offset=-2 / threads=18 / lookahead_threads=3 / sliced_threads=0 / nr=0 / decimate=1 / interlaced=0 / bluray_compat=0 / constrained_intra=0 / bframes=3 / b_pyramid=2 / b_adapt=1 / b_bias=0 / direct=1 / weightb=1 / open_gop=0 / weightp=2 / keyint=240 / keyint_min=23 / scenecut=40 / intra_refresh=0 / rc_lookahead=40 / rc=2pass / mbtree=1 / bitrate=9214 / ratetol=1.0 / qcomp=0.60 / qpmin=10 / qpmax=51 / qpstep=4 / cplxblur=20.0 / qblur=0.5 / ip_ratio=1.40 / aq=1:1.00
Default : Yes
Forced : No

Audio
ID : 2
Format : DTS 96/24
Format/Info : Digital Theater Systems
Commercial name : DTS 96/24
Codec ID : A_DTS
Duration : 2 h 11 min
Bit rate mode : Constant
Bit rate : 1 509 kb/s
Channel(s) : 6 channels
Channel layout : C L R Ls Rs LFE
Sampling rate : 96.0 kHz
Frame rate : 187.500 FPS (512 SPF)
Bit depth : 24 bits
Compression mode : Lossy
Stream size : 1.38 GiB (14%)
Default : Yes
Forced : No

资源下载此资源下载价格为10金币,请先
资源在百度网盘,如有链接失效、解压码错误等、请联系管理微信:aimuvv
资源下载
下载价格:10 金币
VIP优惠:免费
资源在百度网盘,如有链接失效、解压码错误等、请联系管理微信:aimuvv

原文链接:https://www.lgych.com/41106.html,转载请注明出处。

0

评论49

请先

  1. 感谢分享
    zh146782周前
  2. 资源很棒哦!谢谢分享
    ly0012周前
  3. Good show谢谢分享,资源很棒
    hb036436b2周前
  4. 百闻不如一见
    jj8710171周前
  5. 很不错............值得珍藏,谢谢分享...........
    我是大男人1周前
  6. 感谢分享
    zeng8820901周前
  7. 谢谢楼主分享
    jj8710176天前
  8. 感谢分享!楼主好人!
    zh156783天前
  9. Steven Wilson Get All You Deserve 2012《BDrip MKV 9.84G》 BDrip 4周前 HD欧美演唱会 123 1
    tvbs5641分钟前
1 2 3

无损音乐站推荐 - 乐海拾贝无损音乐网站,专注于wav、flac、ape等无损音乐专辑和单曲:https://www.yuehaishibei.com/

没有账号? 注册  忘记密码?