yanaginagi - 4th Album - natte 2018《BDrip MKV 10.1G》

[视频信息]
视频编码: AVC1 - 内置 FFmpeg 解码器(h264, Thread Frame)
输入格式: AVC1(24 bits)
输入尺寸: 1920 × 1080(1.78:1)
输出格式: NV12(12 bits)
输出尺寸: 1920 × 1080(1.78:1)
帧率: 23.976
BitRate: 未知

[音频信息]
音频编码: FLAC Framed(0xf1ac) - OpenCodec(FLAC Decoder)
采样率: 48000 -> 48000 Hz
位率: 24 -> 16 位
声道数: 2 -> 2 声道
Bitrate: 2304 kbps

General
Unique ID : 70790920364882626485403488112979133767 (0x3541D5D853D8365E42065CE422EAC547)
Complete name : Z:\[180117] yanaginagi 4th Album - natte 2018[FLAC]\BD\yanaginagi 5th Anniverary Live “Cassiopeia Limited Express” Live Video Recording [BD 1080p Hi10 x264 FLAC] [D5DD22F0].mkv
Format : Matroska
Format version : Version 4
File size : 7.98 GiB
Duration : 2 h 31 min
Overall bit rate mode : Variable
Overall bit rate : 7 528 kb/s
Movie name : やなぎなぎ 5周年記念ライブ「Cassiopeia Limited Express」ライブ映像収録
Encoded date : UTC 2018-02-11 15:32:46
Writing application : mkvmerge v20.0.0 ('I Am The Sun') 64-bit
Writing library : libebml v1.3.5 + libmatroska v1.4.8

Video
ID : 1
Format : AVC
Format/Info : Advanced Video Codec
Format profile : High 10@L5.1
Format settings : CABAC / 16 Ref Frames
Format settings, CABAC : Yes
Format settings, Reference fra : 16 frames
Codec ID : V_MPEG4/ISO/AVC
Duration : 2 h 31 min
Bit rate : 5 853 kb/s
Width : 1 920 pixels
Height : 1 080 pixels
Display aspect ratio : 16:9
Frame rate mode : Constant
Frame rate : 23.976 (24000/1001) FPS
Color space : YUV
Chroma subsampling : 4:2:0
Bit depth : 10 bits
Scan type : Progressive
Bits/(Pixel*Frame) : 0.118
Stream size : 6.20 GiB (78%)
Writing library : x264 core 152 r2851 ba24899
Encoding settings : cabac=1 / ref=16 / deblock=1:0:0 / analyse=0x3:0x133 / me=umh / subme=10 / psy=1 / psy_rd=1.00:0.00 / mixed_ref=1 / me_range=24 / chroma_me=1 / trellis=2 / 8x8dct=1 / cqm=0 / deadzone=21,11 / fast_pskip=1 / chroma_qp_offset=-2 / threads=18 / lookahead_threads=3 / sliced_threads=0 / nr=0 / decimate=1 / interlaced=0 / bluray_compat=0 / constrained_intra=0 / bframes=8 / b_pyramid=2 / b_adapt=2 / b_bias=0 / direct=3 / weightb=1 / open_gop=0 / weightp=2 / keyint=240 / keyint_min=23 / scenecut=40 / intra_refresh=0 / rc_lookahead=60 / rc=crf / mbtree=1 / crf=20.0 / qcomp=0.60 / qpmin=0 / qpmax=81 / qpstep=4 / ip_ratio=1.40 / aq=1:1.00
Default : Yes
Forced : No

Audio
ID : 2
Format : FLAC
Format/Info : Free Lossless Audio Codec
Codec ID : A_FLAC
Duration : 2 h 31 min
Bit rate mode : Variable
Bit rate : 1 673 kb/s
Channel(s) : 2 channels
Channel layout : L R
Sampling rate : 48.0 kHz
Frame rate : 11.719 FPS (4096 SPF)
Bit depth : 24 bits
Compression mode : Lossless
Stream size : 1.77 GiB (22%)
Writing library : libFLAC 1.3.2 (UTC 2017-01-01)
Default : Yes
Forced : No

Menu
00:00:00.000 : en:Title
00:00:12.721 : en:Sweet Track
00:04:55.295 : en:MC①
00:06:43.403 : en:ユキトキ (Yukitoki)
00:11:20.680 : en:クロスロード (Crossroad)
00:16:30.489 : en:テトラゴン (Tetragon)
00:22:04.698 : en:MC②
00:24:38.351 : en:忘れない為に (Wasurenai Tame ni)
00:29:29.267 : en:Rainy veil
00:34:30.568 : en:Ambivalentidea
00:39:31.869 : en:瞑目の彼方 (Meimoku no Kanata)
00:44:17.321 : en:Burn Out the ENERGY
00:48:44.296 : en:ラテラリティ (Laterality)
00:53:21.198 : en:ファラウェイ・ハイウェイ (Faraway Highway)
00:56:36.393 : en:Zoetrope
01:01:01.658 : en:MC③
01:05:21.584 : en:トコハナ (Tokohana)
01:09:49.560 : en:MC④
01:16:24.955 : en:foe
01:20:48.843 : en:カザキリ (Kazakiri)
01:24:40.575 : en:ストレンジアトラクター (Strange Attractor)
01:28:55.330 : en:Drum 'Solo'
01:32:19.534 : en:アクアテラリウム (Aqua Terrarium)
01:37:28.342 : en:三つ葉の結びめ (Mitsuba no Musibime)
01:42:32.146 : en:MC⑤
01:51:44.698 : en:ターミナル (Terminal)
01:58:09.749 : en:Corleonis
02:01:09.762 : en:ビードロ模様 (Vidro Moyou)
02:07:25.137 : en:春擬き (Harumodoki)
02:12:02.915 : en:MC⑥ (Encore)
02:13:06.478 : en:You can count on me
02:20:16.741 : en:MC⑦
02:24:14.520 : en:深遠 (Shin'en)
02:30:03.869 : en:Ending

 

资源下载
下载价格10 金币
所有资源都在百度网盘,如有链接失效、解压错误等、请联系管理微信:lgychcom
原文链接:https://www.lgych.com/42322.html,转载请注明出处。
0

评论302

请先
  1. 很棒的资源。谢谢9ql
    2023-01-16 0
  2. 支持发展越来越好a15
    2023-01-16 0
  3. 谢谢分享w2q
    2023-01-16 0
  4. 好资源感谢分享0y9
    2023-01-16 0
  5. 谢谢楼主分享u06
    2023-01-16 0
  6. 支持发展越来越好q6k
    2023-01-16 0
  7. 很棒的资源。谢谢83r
    2023-01-16 0
  8. 好资源感谢分享qi4
    2023-01-16 0
  9. 谢谢楼主无私奉献jdy
    2023-01-16 0
  10. 谢谢分享1x6
    2023-01-16 0
  11. 谢谢楼主无私奉献12b
    2023-01-16 0
  12. 感谢分享6nw
    2023-01-16 0
  13. 谢谢楼主无私奉献wdo
    2023-01-16 0
  14. 支持发展越来越好4ut
    2023-01-16 0
  15. 支持发展谢谢很棒的资源
    languang11 2023-12-31 0
  16. 谢谢分享47f
    3周前 0
  17. 很棒的资源7td
    2周前 0
  18. 不错34w
    2周前 0
  19. 非常感谢chu
    2周前 0
  20. 谢谢分享z8i
    2周前 0
1 13 14 15
周华健 1987-2002周而复始(3DVD-ISO7.29G+7.45G+7.56G)
周华健 1987-2002周而复始(3DVD-ISO7.29G+7.45G+7.56G)
3分钟前 有人购买 去瞅瞅看
显示验证码
没有账号?注册  忘记密码?