yanaginagi - Live Tour 2019 -LIBRARY- & -MUSEUM- Additional Performance《BDrip MKV 5.27G》

[视频信息]
视频编码: AVC1 - 内置 FFmpeg 解码器(h264, Thread Frame)
输入格式: AVC1(24 bits)
输入尺寸: 1920 × 1080(1.78:1)
输出格式: NV12(12 bits)
输出尺寸: 1920 × 1080(1.78:1)
帧率: 23.976
BitRate: 未知

[音频信息]
音频编码: FLAC Framed(0xf1ac) - OpenCodec(FLAC Decoder)
采样率: 48000 -> 48000 Hz
位率: 16 -> 16 位
声道数: 2 -> 2 声道
Bitrate: 1536 kbps

General
Unique ID : 173021261981809010377306680638412030021 (0x822AAED5975AA8027FBDEE82B58E0045)
Complete name : Z:\yanaginagi Live Tour 2019 -LIBRARY- & -MUSEUM- Additional Performance [BD 1080p Hi10 x264 FLAC] [A9AA6B64].mkv\yanaginagi Live Tour 2019 -LIBRARY- & -MUSEUM- Additional Performance [BD 1080p Hi10 x264 FLAC] [A9AA6B64].mkv
Format : Matroska
Format version : Version 4
File size : 5.27 GiB
Duration : 2 h 2 min
Overall bit rate mode : Variable
Overall bit rate : 6 174 kb/s
Movie name : やなぎなぎ ライブツアー2019 -LIBRARY- & -MUSEUM- 追加公演
Encoded date : UTC 2019-12-14 13:32:34
Writing application : mkvmerge v41.0.0 ('Smarra') 64-bit
Writing library : libebml v1.3.9 + libmatroska v1.5.2

Video
ID : 1
Format : AVC
Format/Info : Advanced Video Codec
Format profile : High 10@L5.1
Format settings : CABAC / 16 Ref Frames
Format settings, CABAC : Yes
Format settings, Reference fra : 16 frames
Codec ID : V_MPEG4/ISO/AVC
Duration : 2 h 2 min
Bit rate : 5 196 kb/s
Width : 1 920 pixels
Height : 1 080 pixels
Display aspect ratio : 16:9
Frame rate mode : Constant
Frame rate : 23.976 (24000/1001) FPS
Color space : YUV
Chroma subsampling : 4:2:0
Bit depth : 10 bits
Scan type : Progressive
Bits/(Pixel*Frame) : 0.105
Stream size : 4.44 GiB (84%)
Writing library : x264 core 157 r2969 d4099dd
Encoding settings : cabac=1 / ref=16 / deblock=1:0:0 / analyse=0x3:0x133 / me=umh / subme=10 / psy=1 / psy_rd=1.00:0.00 / mixed_ref=1 / me_range=24 / chroma_me=1 / trellis=2 / 8x8dct=1 / cqm=0 / deadzone=21,11 / fast_pskip=1 / chroma_qp_offset=-2 / threads=18 / lookahead_threads=3 / sliced_threads=0 / nr=0 / decimate=1 / interlaced=0 / bluray_compat=0 / constrained_intra=0 / bframes=8 / b_pyramid=2 / b_adapt=2 / b_bias=0 / direct=3 / weightb=1 / open_gop=0 / weightp=2 / keyint=240 / keyint_min=23 / scenecut=40 / intra_refresh=0 / rc_lookahead=60 / rc=crf / mbtree=1 / crf=19.5 / qcomp=0.60 / qpmin=0 / qpmax=69 / qpstep=4 / ip_ratio=1.40 / aq=1:1.00
Default : Yes
Forced : No

Audio
ID : 2
Format : FLAC
Format/Info : Free Lossless Audio Codec
Codec ID : A_FLAC
Duration : 2 h 2 min
Bit rate mode : Variable
Bit rate : 976 kb/s
Channel(s) : 2 channels
Channel layout : L R
Sampling rate : 48.0 kHz
Frame rate : 11.719 FPS (4096 SPF)
Bit depth : 16 bits
Compression mode : Lossless
Stream size : 853 MiB (16%)
Writing library : libFLAC 1.3.2 (UTC 2017-01-01)
Default : Yes
Forced : No

Menu
00:00:00.000 : :INTRO
00:00:34.284 : :春擬き (Harumodoki)
00:05:01.843 : :over and over
00:09:52.091 : :ラテラリティ (Laterality)
00:14:45.301 : :トコハナ (Tokohana)
00:19:14.486 : :MC①
00:20:52.459 : :未明の君と薄明の魔法 (Mimei no Kimi to Hakumei no Mahou)
00:25:45.460 : :時間は窓の向こう側 (Jikan wa Mado no Mukougawa)
00:31:26.885 : :砂糖玉の月 (Satoudama no Tsuki)
00:36:05.663 : :テトラゴン (Tetragon)
00:41:26.734 : :MC②
00:43:35.779 : :アクアテラリウム(メドレー) (Aqua Terrarium (Medley))
00:45:37.735 : :三つ葉の結びめ(メドレー) (Mitsuba no Musubime (Medley))
00:47:30.681 : :point at infinity(メドレー) (point at infinity (Medley))
00:49:16.703 : :here and there(メドレー) (here and there (Medley))
00:51:32.923 : :continue
00:56:36.893 : :BiblioMonster
01:02:01.968 : :MC③
01:07:33.924 : :夜明けの光をあつめながら (Yoake no Hikari wo Atsume Nagara)
01:13:50.926 : :無形のアウトライン (Mukei no Outline)
01:18:30.956 : :カザキリ (Kazakiri)
01:22:14.638 : :Zoetrope
01:26:33.188 : :can cry
01:30:55.616 : :オラリオン (Orarion)
01:35:16.502 : :ターミナル (Terminal)
01:42:20.968 : :ユキトキ (Yukitoki)
01:46:56.993 : :You can count on me
01:54:26.609 : :ビードロ模様 (Vidro Moyou)
01:59:25.449 : :ENDING

 

资源下载此资源下载价格为10金币,VIP免费,请先
所有资源都在百度网盘,如有链接失效、解压错误等、请联系管理微信:aimuvv
资源下载
下载价格10 金币
VIP免费
所有资源都在百度网盘,如有链接失效、解压错误等、请联系管理微信:aimuvv

原文链接:https://www.lgych.com/42330.html,转载请注明出处。

3

评论204

请先

  1. 谢谢分享!
    user_zbz 2022-06-06 0
  2. 多谢分享
    CSLancelot 2022-06-08 0
  3. 谢谢分享
    awccn8888 2022-06-16 0
  4. 很好很強大 謝謝樓主分享
    duloveliu666 2022-06-25 0
  5. 很好的資源
    laiwingnang 2022-06-30 0
  6. 感谢楼主的好碟分享
    yulihua 2022-07-01 0
  7. 感谢分享
    Handsche 2022-07-10 0
  8. 多谢分享!
    q7886650 2022-07-10 0
  9. 多谢分享!
    Hkys 2022-07-10 0
  10. 多谢分享!
    a7886650 2022-07-10 0
  11. 皮皮巴巴多谢分享!皮皮巴巴多谢分享!皮皮巴巴多谢分享!皮皮巴巴多谢分享!
    小小姐姐 2022-07-11 0
  12. 很狂
    hym9711 4周前 0
  13. 谢谢分享
    hymhym 4周前 0
  14. 谢谢分享1
    huyiming249 4周前 0
  15. 谢谢分享G
    971145 4周前 0
  16. 感谢分享!
    Hakku 4周前 0
  17. 很好很强大 谢谢楼主分享
    okone1 3周前 0
  18. 感謝樓主分享
    nnnnn 2周前 0
  19. ヾ(*´ー`*)ノ゛谢谢♪
    saito 5天前 0
1 8 9 10
华语蓝光合集 252部11T资源终极收藏!支持硬盘拷贝:https://www.lgych.com/cnbd/
显示验证码
没有账号? 注册  忘记密码?